<?xml version="1.0" standalone="no"?>
<!DOCTYPE svg PUBLIC "-//W3C//DTD SVG 1.1//EN" "http://www.w3.org/Graphics/SVG/1.1/DTD/svg11.dtd" >
<svg xmlns="http://www.w3.org/2000/svg">
<metadata>Generated by IcoMoon</metadata>
<defs>
<font id="wp-Ingenicons" horiz-adv-x="1024">
<font-face units-per-em="1024" ascent="960" descent="-64" />
<missing-glyph horiz-adv-x="1024" />
<glyph unicode="&#x20;" d="" horiz-adv-x="512" />
<glyph unicode="&#xe600;" d="M512-64c-282.321 0-512 229.679-512 512s229.679 512 512 512c282.321 0 512-229.679 512-512s-229.679-512-512-512zM512 913.455c-256.652 0-465.455-208.803-465.455-465.455 0-248.809 196.375-452.026 442.182-464.268 0 0 0 69.306 0 69.306-207.36 12.102-372.364 184.623-372.364 394.961 0 218.159 177.478 395.636 395.636 395.636s395.636-177.478 395.636-395.636c0-12.87-10.426-23.273-23.273-23.273s-23.273 10.403-23.273 23.273c0 192.489-156.602 349.091-349.091 349.091s-349.091-156.602-349.091-349.091c0-192.512 156.602-349.091 349.091-349.091 12.847 0 23.273-10.403 23.273-23.273 0 0 0-91.904 0-91.904 245.807 12.241 442.182 215.459 442.182 464.268 0 256.652-208.803 465.455-465.455 465.455zM721.455 424.727c0 0-186.182 0-186.182 0s0-186.182 0-186.182c0-12.87-10.426-23.273-23.273-23.273s-23.273 10.403-23.273 23.273c0 0 0 186.182 0 186.182s-186.182 0-186.182 0c-12.847 0-23.273 10.403-23.273 23.273s10.426 23.273 23.273 23.273c0 0 186.182 0 186.182 0s0 186.182 0 186.182c0 12.87 10.426 23.273 23.273 23.273s23.273-10.403 23.273-23.273c0 0 0-186.182 0-186.182s186.182 0 186.182 0c12.847 0 23.273-10.403 23.273-23.273s-10.426-23.273-23.273-23.273z" />
<glyph unicode="&#xe601;" d="M1001.323 374.4c-0.085-0.021-0.256 0-0.405 0 0 0-83.413 0-83.413 0 0.021-0.363 0.213-0.683 0.213-1.067 0-179.584-120.363-339.733-292.757-389.483-1.984-0.576-3.968-0.853-5.909-0.853-9.28 0-17.792 6.080-20.501 15.424-3.285 11.328 3.264 23.147 14.571 26.432 154.219 44.48 261.931 187.797 261.931 348.48 0 0.384 0.192 0.704 0.213 1.067 0 0-85.547 0-85.547 0-8.619 0-16.405 5.205-19.712 13.163-3.307 7.979-1.472 17.173 4.629 23.253 0 0 105.621 105.6 105.621 105.6 3.989 4.011 9.408 6.251 15.083 6.251 5.653 0 11.072-2.24 15.083-6.251 0 0 103.275-103.275 103.275-103.275 5.419-3.861 8.96-10.219 8.96-17.408 0-11.776-9.536-21.333-21.333-21.333zM895.339 471.168c0 0-54.123-54.101-54.123-54.101s108.203 0 108.203 0c0 0-54.080 54.101-54.080 54.101zM533.013 609.045c-0.981-202.091-2.389-578.603 0.64-618.069 0.021-0.299-0.128-0.555-0.107-0.832 0-0.277 0.171-0.533 0.171-0.811 0-1.195-0.491-2.219-0.683-3.371-0.235-1.408-0.341-2.816-0.832-4.139-0.512-1.301-1.301-2.389-2.048-3.584-0.704-1.131-1.301-2.304-2.219-3.285-0.939-1.024-2.091-1.749-3.221-2.56-1.088-0.789-2.091-1.664-3.328-2.24-1.28-0.597-2.688-0.811-4.075-1.152-1.109-0.277-2.112-0.853-3.285-0.939-0.555-0.043-1.109-0.064-1.643-0.064 0 0 0 0 0 0-0.021 0-0.021 0-0.021 0s0 0 0 0c-0.021 0-0.021 0-0.021 0-223.488 0.021-405.312 181.845-405.312 405.333 0 0.384 0.192 0.704 0.213 1.067 0 0-85.547 0-85.547 0-8.64 0-16.427 5.205-19.712 13.163-3.307 7.979-1.493 17.173 4.629 23.253 0 0 105.6 105.6 105.6 105.6 4.011 4.011 9.408 6.251 15.083 6.251s11.093-2.24 15.083-6.251c0 0 103.275-103.275 103.275-103.275 5.44-3.861 8.981-10.219 8.981-17.408 0-11.776-9.536-21.333-21.333-21.333-0.085-0.021-0.256 0-0.427 0 0 0-83.392 0-83.392 0 0.021-0.363 0.213-0.683 0.213-1.067 0-192.512 150.891-350.016 340.544-361.536-2.027 95.339-0.789 416.021 0.107 597.333-107.328 11.072-191.317 101.995-191.317 212.203 0 11.776 9.557 21.333 21.333 21.333 11.797 0 21.333-9.557 21.333-21.333 0-86.699 65.045-158.357 148.864-169.109 0.149 27.563 0.277 49.92 0.363 64.619-48.576 9.941-85.227 53.013-85.227 104.491 0 58.816 47.872 106.667 106.688 106.667s106.667-47.851 106.667-106.667c0-51.541-36.779-94.656-85.461-104.512-0.085-14.549-0.192-36.928-0.341-64.747 84.267 10.347 149.803 82.24 149.803 169.259 0 11.776 9.536 21.333 21.333 21.333s21.333-9.557 21.333-21.333c0-110.677-84.715-201.856-192.704-212.288zM181.376 417.067c0 0-54.080 54.101-54.080 54.101s-54.101-54.101-54.101-54.101c0 0 108.181 0 108.181 0zM576.384 821.333c0 35.285-28.715 64-64 64-35.307 0-64.021-28.715-64.021-64s28.715-64 64.021-64c35.285 0 64 28.715 64 64z" />
<glyph unicode="&#xe602;" d="M971.362 106.91c0 0-16.847-16.725-16.847-16.725-29.818-29.623-69.437-45.909-111.592-45.909s-81.798 16.286-111.592 45.909c0 0-591.384 587.435-591.384 587.435s68.584 68.12 68.584 68.12c0 0 34.28-34.060 34.28-34.060s-34.28-34.060-34.28-34.060c0 0 557.105-553.374 557.105-553.374 20.626-20.504 48.079-31.793 77.288-31.793s56.661 11.288 77.312 31.793c0 0 16.847 16.725 16.847 16.725 42.618 42.35 42.618 111.25 0 153.6 0 0-574.245 570.417-574.245 570.417s34.304 34.060 34.304 34.060c0 0 574.22-570.417 574.22-570.417 61.538-61.123 61.538-160.597 0-221.72zM808.619 149.65c0 0-34.28 34.060-34.28 34.060s34.304 34.060 34.304 34.060c0 0-557.105 553.374-557.105 553.374-42.618 42.35-111.982 42.35-154.624 0 0 0-16.847-16.725-16.847-16.725-42.618-42.325-42.618-111.25 0-153.6 0 0 574.245-570.392 574.245-570.392s-34.28-34.060-34.28-34.060c0 0-574.245 570.392-574.245 570.392-61.538 61.147-61.538 160.597 0 221.72 0 0 16.847 16.725 16.847 16.725 61.513 61.147 161.646 61.172 223.183 0 0 0 591.384-587.435 591.384-587.435s-68.584-68.12-68.584-68.12z" />
<glyph unicode="&#xe603;" d="M996.107 813.657c0 0-197.031-119.563-197.031-119.563 32.701-13.379 53.56-44.544 53.226-80.451-0.289-36.975-22.84-68.653-57.366-80.74 0 0-5.031-1.759-5.031-1.759-11.086-3.873-19.723-12.043-24.331-22.995-4.586-10.93-4.385-22.884 0.579-33.658 0 0 2.226-4.897 2.226-4.897 12.533-27.225 10.685-57.233-5.12-82.254-22.84-36.196-70.611-50.666-109.479-31.566 0 0-4.719 2.315-4.719 2.315-21.593 10.596-48.462-0.868-56.454-23.040 0 0-1.848-5.098-1.848-5.098-12.399-34.326-43.832-56.543-80.028-56.543-36.909-0.022-68.541 22.773-80.607 58.034 0 0-1.714 5.075-1.714 5.075-7.658 22.372-34.438 34.237-56.031 24.042 0 0-4.764-2.248-4.764-2.248-0.801-0.378-1.647-0.534-2.449-0.89 0 0 0-343.285 0-343.285s120.253 121.656 120.253 121.656c8.348 8.437 21.793 8.749 30.542 0.712 0 0 136.86-125.796 136.86-125.796s0 262.678 0 262.678c0 12.355 9.884 22.372 22.127 22.372 12.221 0 22.127-10.017 22.127-22.372 0 0 0-313.277 0-313.277 0-8.86-5.165-16.874-13.178-20.458-8.036-3.562-17.386-2.048-23.841 3.918 0 0-158.253 145.475-158.253 145.475s-143.137-144.762-143.137-144.762c-4.23-4.274-9.884-6.545-15.627-6.545-2.872 0-5.743 0.557-8.481 1.714-8.281 3.45-13.646 11.62-13.646 20.658 0 0 0 391.213 0 391.213-24.865 3.384-48.039 17.519-61.841 39.802-15.716 25.444-17.23 55.697-4.096 83.033 0 0 2.36 4.875 2.36 4.875 5.098 10.641 5.498 22.595 1.091 33.636-4.408 10.997-12.889 19.3-23.908 23.396 0 0-5.031 1.848-5.031 1.848-34.282 12.666-56.253 44.744-55.942 81.72 0.267 32.122 17.363 60.238 44.499 74.975 0 0-196.185 119.051-196.185 119.051-10.485 6.367-13.869 20.102-7.591 30.698 6.3 10.574 19.857 14.047 30.364 7.68 0 0 213.749-129.714 213.749-129.714 0.534 1.024 1.447 1.714 1.914 2.783 4.563 10.93 4.385 22.884-0.557 33.636 0 0-2.248 4.92-2.248 4.92-12.555 27.247-10.663 57.255 5.12 82.276 22.862 36.218 70.611 50.666 109.457 31.566 0 0 4.786-2.36 4.786-2.36 21.326-10.485 48.395 0.868 56.409 23.085 0 0 1.825 4.986 1.825 4.986 12.422 34.415 43.832 56.632 80.028 56.632 36.909 0 68.541-22.773 80.607-58.034 0 0 1.736-5.075 1.736-5.075 7.613-22.35 34.371-34.17 56.031-24.042 0 0 4.808 2.271 4.808 2.271 38.867 18.254 86.061 3.406 108.477-32.835 15.761-25.444 17.252-55.719 4.118-83.033 0 0-2.315-4.808-2.315-4.808-4.296-8.949-5.098-18.744-2.738-28.16 0 0 207.494 125.907 207.494 125.907 10.507 6.367 24.086 2.894 30.364-7.68 6.3-10.596 2.894-24.331-7.591-30.698zM781.156 653.312c0 0-4.986 1.848-4.986 1.848-22.617 8.37-40.76 26.112-49.775 48.685s-8.147 48.083 2.382 69.988c0 0 2.315 4.808 2.315 4.808 8.659 18.031 2.582 32.634-1.825 39.736-10.952 17.697-33.035 25.066-52.313 16.006 0 0-4.831-2.271-4.831-2.271-11.375-5.343-23.441-8.036-35.885-8.036-36.352 0-68.742 23.329-80.629 58.034 0 0-1.714 5.098-1.714 5.098-7.034 20.569-24.643 27.893-38.778 27.893-13.824 0-31.21-7.146-38.467-27.225 0 0-1.803-5.009-1.803-5.009-12.288-33.903-44.477-56.676-80.139-56.676-12.956 0-25.466 2.938-37.22 8.704 0 0-4.786 2.36-4.786 2.36-19.233 9.461-41.606 2.293-52.781-15.382-4.408-6.99-10.574-21.393-2.293-39.402 0 0 2.226-4.875 2.226-4.875 10.129-22.038 10.574-47.571 1.18-69.988-9.416-22.417-27.871-39.825-50.621-47.794 0 0-5.031-1.759-5.031-1.759-20.146-7.034-27.47-24.665-27.603-38.823-0.111-14.136 6.901-31.878 26.936-39.29 0 0 5.009-1.87 5.009-1.87 22.573-8.326 40.715-26.067 49.753-48.64 9.016-22.573 8.17-48.083-2.36-69.988 0 0-2.36-4.875-2.36-4.875-8.637-17.987-2.56-32.59 1.825-39.691 10.975-17.742 33.102-25.066 52.358-16.006 0 0 4.764 2.271 4.764 2.271 11.42 5.343 23.463 8.058 35.907 8.058 36.352 0 68.742-23.329 80.629-58.056 0 0 1.736-5.098 1.736-5.098 7.012-20.569 24.621-27.893 38.756-27.893 13.846 0 31.232 7.168 38.467 27.225 0 0 1.87 5.12 1.87 5.12 12.221 33.792 44.41 56.565 80.095 56.565 12.934 0 25.489-2.938 37.22-8.704 0 0 4.719-2.337 4.719-2.337 19.434-9.528 41.695-2.315 52.847 15.382 4.408 6.99 10.552 21.393 2.293 39.357 0 0-2.226 4.897-2.226 4.897-10.151 22.038-10.574 47.571-1.18 69.988s27.848 39.847 50.621 47.794c0 0 5.031 1.759 5.031 1.759 20.124 7.057 27.448 24.687 27.581 38.823 0.111 14.136-6.879 31.9-26.913 39.29z" />
<glyph unicode="&#xe604;" d="M853.333 732.444c0 0 0-681.802 0-681.802 0-63.215-51.428-114.642-114.642-114.642 0 0-453.382 0-453.382 0-63.215 0-114.642 51.428-114.642 114.642 0 0 0 681.802 0 681.802s-68.267 0-68.267 0c0 0 0 45.511 0 45.511s113.778 0 113.778 0c0 0 0-727.313 0-727.313 0-38.116 31.016-69.131 69.131-69.131 0 0 453.382 0 453.382 0 38.116 0 69.131 31.016 69.131 69.131 0 0 0 727.313 0 727.313s113.778 0 113.778 0c0 0 0-45.511 0-45.511s-68.267 0-68.267 0zM625.778 72.533c0 0 0 591.644 0 591.644s113.778 0 113.778 0c0 0 0-45.511 0-45.511s-68.267 0-68.267 0c0 0 0-546.133 0-546.133s-45.511 0-45.511 0zM352.711 72.533c0 0 0 546.133 0 546.133s-68.267 0-68.267 0c0 0 0 45.511 0 45.511s113.778 0 113.778 0c0 0 0-591.644 0-591.644s-45.511 0-45.511 0zM534.756 72.533c0 0-45.511 0-45.511 0s0 659.911 0 659.911c0 0-227.556 0-227.556 0s0 45.511 0 45.511c0 0 500.622 0 500.622 0s0-45.511 0-45.511c0 0-227.556 0-227.556 0s0-659.911 0-659.911zM625.778 914.489c0 0-227.556 0-227.556 0s0-68.267 0-68.267c0 0-45.511 0-45.511 0s0 113.778 0 113.778c0 0 318.578 0 318.578 0s0-113.778 0-113.778c0 0-45.511 0-45.511 0s0 68.267 0 68.267z" />
<glyph unicode="&#xe605;" d="M775.909 644.521c0 0-477.598-486.988-477.598-486.988-4.27-4.336-9.87-6.493-15.447-6.493 0-12.070-9.717-21.874-21.722-21.874-11.983 0-21.7 9.804-21.7 21.874 0 0 0 218.635 0 218.635 0 12.092 9.717 21.874 21.7 21.874 12.005 0 21.722-9.782 21.722-21.874 0 0 0-165.648 0-165.648s238.614 243.298 238.614 243.298c0 0-238.614 222.208-238.614 222.208s0-146.802 0-146.802c0-12.070-9.717-21.853-21.722-21.853-11.983 0-21.7 9.782-21.7 21.853 0 0 0 196.804 0 196.804 0 8.671 5.098 16.537 13.007 20.022s17.081 1.939 23.421-3.965c0 0 276.131-257.155 276.131-257.155s177.827 181.335 177.827 181.335c0 0-261.033 262.95-261.033 262.95-8.475 8.541-8.475 22.375 0 30.916s22.223 8.541 30.698 0c0 0 276.306-278.31 276.306-278.31 8.432-8.497 8.475-22.267 0.109-30.807zM468.796-24.347c0 0 260.946 262.841 260.946 262.841s-120.767 121.638-120.767 121.638c-8.475 8.541-8.475 22.375 0 30.916s22.223 8.541 30.698 0c0 0 136.127-137.085 136.127-137.085 8.475-8.541 8.475-22.397 0-30.916 0 0-276.306-278.31-276.306-278.31-4.227-4.27-9.782-6.405-15.338-6.405s-11.111 2.135-15.36 6.405c-8.475 8.541-8.475 22.375 0 30.916z" />
<glyph unicode="&#xe606;" d="M943.855 348.695c-38.798-38.684-90.362-59.984-145.226-59.984s-106.428 21.299-145.203 59.984c-80.077 79.849-80.077 209.783 0 289.633 38.775 38.684 90.34 59.984 145.203 59.984s106.428-21.299 145.226-59.984c80.054-79.849 80.054-209.783 0-289.633zM911.588 606.151c-30.174 30.083-70.292 46.649-112.959 46.649s-82.785-16.566-112.959-46.649c-62.259-62.123-62.259-163.157 0-225.28 30.174-30.083 70.292-46.649 112.959-46.649s82.785 16.566 112.959 46.649c62.282 62.123 62.282 163.157 0 225.28zM879.297 413.047c-4.46-4.437-10.308-6.667-16.134-6.667-5.848 0-11.674 2.23-16.134 6.667 0 0-48.401 48.287-48.401 48.287s-48.401-48.287-48.401-48.287c-4.46-4.437-10.286-6.667-16.134-6.667-5.825 0-11.674 2.23-16.134 6.667-8.897 8.875-8.897 23.302 0 32.176 0 0 48.401 48.287 48.401 48.287s-48.401 48.287-48.401 48.287c-8.897 8.875-8.897 23.279 0 32.176 8.92 8.875 23.37 8.875 32.267 0 0 0 48.401-48.287 48.401-48.287s48.401 48.287 48.401 48.287c8.92 8.875 23.347 8.875 32.267 0 8.92-8.897 8.92-23.302 0-32.176 0 0-48.401-48.287-48.401-48.287s48.401-48.287 48.401-48.287c8.92-8.875 8.92-23.302 0-32.176zM707.356 721.067c-12.607 0-22.801 10.194-22.801 22.756 0 0 0 136.533 0 136.533s-501.988 0-501.988 0c-12.607 0-22.824 10.194-22.824 22.756s10.217 22.756 22.824 22.756c0 0 524.789 0 524.789 0 12.607 0 22.824-10.194 22.824-22.756 0 0 0-159.289 0-159.289 0-12.561-10.217-22.756-22.824-22.756zM570.459 743.822c0 0 0-750.933 0-750.933 0-6.895-3.118-13.403-8.488-17.727-4.096-3.277-9.17-5.029-14.336-5.029-1.616 0-3.231 0.159-4.847 0.523 0 0-524.811 113.778-524.811 113.778-10.468 2.276-17.954 11.537-17.954 22.232 0 0 0 750.933 0 750.933 0 6.895 3.118 13.403 8.488 17.727 5.393 4.324 12.425 5.962 19.183 4.506 0 0 524.811-113.778 524.811-113.778 10.468-2.276 17.954-11.537 17.954-22.232zM524.834 725.481c0 0-479.164 103.879-479.164 103.879s0-704.353 0-704.353c0 0 479.164-103.879 479.164-103.879s0 704.353 0 704.353zM142.063 674.987c0 0 296.619-68.267 296.619-68.267 10.354-2.389 17.681-11.583 17.681-22.187 0 0 0-182.044 0-182.044 0-6.94-3.163-13.494-8.624-17.818-4.050-3.231-9.079-4.938-14.177-4.938-1.729 0-3.436 0.182-5.143 0.569 0 0-296.619 68.267-296.619 68.267-10.354 2.389-17.681 11.583-17.681 22.187 0 0 0 182.044 0 182.044 0 6.94 3.163 13.494 8.624 17.818 5.416 4.324 12.584 5.871 19.319 4.369zM159.744 488.846c0 0 250.994-57.754 250.994-57.754s0 135.35 0 135.35c0 0-250.994 57.754-250.994 57.754s0-135.35 0-135.35zM661.732 129.422c0 0 22.824 0 22.824 0s0 113.801 0 113.801c0 12.561 10.194 22.733 22.801 22.733s22.824-10.172 22.824-22.733c0 0 0-136.556 0-136.556 0-12.561-10.217-22.756-22.824-22.756 0 0-45.625 0-45.625 0-12.607 0-22.824 10.194-22.824 22.756s10.217 22.756 22.824 22.756z" />
<glyph unicode="&#xe607;" d="M798.595 224.718c0 0-88.314-88.289-88.314-88.289s-35.316 35.34-35.316 35.34c0 0 88.314 88.289 88.314 88.289s35.316-35.34 35.316-35.34zM763.28 559.766c0 0 35.316-35.34 35.316-35.34s-88.314-88.289-88.314-88.289c0 0-35.316 35.316-35.316 35.316s88.314 88.314 88.314 88.314zM573.815 224.718c0 0-88.289-88.289-88.289-88.289s-35.34 35.34-35.34 35.34c0 0 88.314 88.289 88.314 88.289s35.316-35.34 35.316-35.34zM538.499 559.766c0 0 35.316-35.34 35.316-35.34s-88.289-88.289-88.289-88.289c0 0-35.34 35.316-35.34 35.316s88.314 88.314 88.314 88.314zM349.034 224.718c0 0-88.289-88.289-88.289-88.289s-35.34 35.34-35.34 35.34c0 0 88.314 88.289 88.314 88.289s35.316-35.34 35.316-35.34zM313.719 559.766c0 0 35.316-35.34 35.316-35.34s-88.289-88.289-88.289-88.289c0 0-35.34 35.316-35.34 35.316s88.314 88.314 88.314 88.314zM12.488-64c0 0 0 674.341 0 674.341s49.951 0 49.951 0c0 0 0-624.39 0-624.39s899.122 0 899.122 0c0 0 0 674.341 0 674.341s-949.073 0-949.073 0c0 0 0 249.756 0 249.756s249.756 0 249.756 0c0 0 0-49.951 0-49.951s-199.805 0-199.805 0c0 0 0-149.854 0-149.854s899.122 0 899.122 0c0 0 0 149.854 0 149.854s-249.756 0-249.756 0c0 0 0-49.951 0-49.951s-49.951 0-49.951 0c0 0 0 149.854 0 149.854s49.951 0 49.951 0c0 0 0-49.951 0-49.951s299.707 0 299.707 0c0 0 0-974.049 0-974.049s-999.024 0-999.024 0zM362.146 810.146c0 0-49.951 0-49.951 0s0 149.854 0 149.854c0 0 49.951 0 49.951 0s0-49.951 0-49.951c0 0 249.756 0 249.756 0s0-49.951 0-49.951c0 0-249.756 0-249.756 0s0-49.951 0-49.951z" />
<glyph unicode="&#xe608;" d="M891.416-64c0 0-758.833 0-758.833 0-73.118 0-132.584 59.465-132.584 132.584 0 0 0 758.808 0 758.808 0 13.483 10.923 24.381 24.381 24.381s24.381-10.898 24.381-24.381c0 0 0-758.808 0-758.808 0-46.202 37.595-83.822 83.822-83.822 0 0 758.833 0 758.833 0 46.226 0 83.822 37.62 83.822 83.822 0 0 0 758.808 0 758.808 0 46.226-37.595 83.846-83.822 83.846 0 0-758.833 0-758.833 0-13.458 0-24.381 10.898-24.381 24.381s10.923 24.381 24.381 24.381c0 0 758.833 0 758.833 0 73.118 0 132.584-59.49 132.584-132.608 0 0 0-758.808 0-758.808 0-73.118-59.465-132.584-132.584-132.584zM319.415 640.585c9.509 9.533 24.942 9.533 34.475 0 0 0 206.872-206.872 206.872-206.872s206.872 206.872 206.872 206.872c9.533 9.533 24.966 9.533 34.475 0 9.533-9.509 9.533-24.942 0-34.475 0 0-206.872-206.872-206.872-206.872s206.872-206.872 206.872-206.872c9.533-9.533 9.533-24.966 0-34.475-4.754-4.779-10.996-7.144-17.237-7.144s-12.459 2.365-17.237 7.144c0 0-206.872 206.872-206.872 206.872s-206.872-206.872-206.872-206.872c-4.779-4.779-10.996-7.144-17.237-7.144s-12.483 2.365-17.237 7.144c-9.533 9.509-9.533 24.942 0 34.475 0 0 206.872 206.872 206.872 206.872s-206.872 206.872-206.872 206.872c-9.533 9.533-9.533 24.966 0 34.475zM121.905 82.286c-13.458 0-24.381 10.898-24.381 24.381 0 0 0 657.384 0 657.384 0 54.248 44.154 98.426 98.426 98.426 0 0 657.384 0 657.384 0 13.458 0 24.381-10.898 24.381-24.381s-10.923-24.381-24.381-24.381c0 0-657.384 0-657.384 0-27.38 0-49.664-22.284-49.664-49.664 0 0 0-657.384 0-657.384 0-13.483-10.923-24.381-24.381-24.381z" />
<glyph unicode="&#xe609;" d="M1024 158.23c0-55.029-44.789-99.795-99.795-99.795 0 0-824.409 0-824.409 0-55.007 0-99.795 44.767-99.795 99.795 0 0 0 56.031 0 56.031 0 3.784 1.18 7.168 2.849 10.307-1.714 7.324-2.849 14.87-2.849 22.706 0 0 0 490.496 0 490.496 0 55.029 44.789 99.795 99.795 99.795 0 0 824.409 0 824.409 0 55.007 0 99.795-44.767 99.795-99.795 0 0 0-490.496 0-490.496 0-7.836-1.135-15.382-2.849-22.706 1.67-3.139 2.849-6.522 2.849-10.307 0 0 0-56.031 0-56.031zM979.478 737.77c0 30.475-24.799 55.274-55.274 55.274 0 0-824.409 0-824.409 0-30.475 0-55.274-24.799-55.274-55.274 0 0 0-33.77 0-33.77s868.174 0 868.174 0c12.31 0 22.261-9.973 22.261-22.261s-9.951-22.261-22.261-22.261c0 0-868.174 0-868.174 0s0-89.043 0-89.043c0 0 934.957 0 934.957 0s0 167.335 0 167.335zM979.478 525.913c0 0-934.957 0-934.957 0s0-278.639 0-278.639c0-30.475 24.799-55.274 55.274-55.274 0 0 824.409 0 824.409 0 30.475 0 55.274 24.799 55.274 55.274 0 0 0 278.639 0 278.639zM979.478 164.285c-15.85-10.596-34.838-16.807-55.274-16.807 0 0-824.409 0-824.409 0-20.435 0-39.424 6.211-55.274 16.807 0 0 0-6.055 0-6.055 0-30.475 24.799-55.274 55.274-55.274 0 0 824.409 0 824.409 0 30.475 0 55.274 24.799 55.274 55.274 0 0 0 6.055 0 6.055zM756.87 414.609c0 0 155.826 0 155.826 0s0-44.522 0-44.522c0 0-155.826 0-155.826 0s0 44.522 0 44.522zM534.261 414.609c0 0 155.826 0 155.826 0s0-44.522 0-44.522c0 0-155.826 0-155.826 0s0 44.522 0 44.522zM311.652 414.609c0 0 155.826 0 155.826 0s0-44.522 0-44.522c0 0-155.826 0-155.826 0s0 44.522 0 44.522zM89.043 414.609c0 0 155.826 0 155.826 0s0-44.522 0-44.522c0 0-155.826 0-155.826 0s0 44.522 0 44.522z" />
<glyph unicode="&#xe60a;" d="M1018.275 616.541c0 0-92.625-349.091-92.625-349.091-2.7-10.17-11.869-17.268-22.365-17.268 0 0-694.691 0-694.691 0-25.53 0-46.313-20.876-46.313-46.545 0-19.665 12.381-37.283 30.79-43.869 4.957-1.769 10.193-2.676 15.523-2.676 0 0 694.691 0 694.691 0 12.8 0 23.156-10.426 23.156-23.273s-10.356-23.273-23.156-23.273c0 0-59.206 0-59.206 0 7.983-13.754 12.893-29.51 12.893-46.545 0-51.34-41.542-93.091-92.625-93.091s-92.625 41.751-92.625 93.091c0 17.036 4.911 32.791 12.87 46.545 0 0-326.796 0-326.796 0 7.983-13.754 12.893-29.51 12.893-46.545 0-51.34-41.542-93.091-92.625-93.091s-92.625 41.751-92.625 93.091c0 17.361 5.050 33.443 13.335 47.383-7.215 0.768-14.359 2.071-21.225 4.515-36.841 13.172-61.58 48.407-61.58 87.738 0 42.659 28.672 78.685 67.654 89.67 0 0-43.101 498.176-43.101 498.176s-124.509 41.705-124.509 41.705c-12.102 4.073-18.665 17.245-14.615 29.44 4.026 12.195 17.059 18.851 29.277 14.732 0 0 138.938-46.545 138.938-46.545 8.751-2.932 14.941-10.822 15.732-20.084 0 0 10.356-119.622 10.356-119.622s247.831-36.631 247.831-36.631c12.66-1.862 21.388-13.708 19.526-26.415-1.699-11.567-11.567-19.898-22.877-19.898-1.117 0-2.234 0.093-3.398 0.256 0 0-236.963 35.025-236.963 35.025s4.049-46.708 4.049-46.708c0 0 731.671-111.43 731.671-111.43s12.614 47.546 12.614 47.546c0 0-187.183 27.648-187.183 27.648-12.66 1.885-21.388 13.708-19.526 26.415 1.839 12.707 13.405 21.62 26.275 19.642 0 0 192.442-28.439 192.442-28.439s13.382 50.432 13.382 50.432c3.305 12.428 16.012 19.735 28.323 16.477 12.358-3.305 19.712-16.058 16.407-28.486zM764.346 17.455c25.53 0 46.313 20.876 46.313 46.545s-20.783 46.545-46.313 46.545c-25.53 0-46.313-20.876-46.313-46.545s20.783-46.545 46.313-46.545zM278.063 17.455c25.53 0 46.313 20.876 46.313 46.545s-20.783 46.545-46.313 46.545c-25.53 0-46.313-20.876-46.313-46.545s20.783-46.545 46.313-46.545zM207.988 549.027c0 0 21.83-252.3 21.83-252.3s655.663 0 655.663 0c0 0 38.051 143.337 38.051 143.337s-715.543 108.963-715.543 108.963zM625.408 599.273c-89.367 0-162.095 73.076-162.095 162.909s72.727 162.909 162.095 162.909c12.8 0 23.156-10.426 23.156-23.273s-10.356-23.273-23.156-23.273c-63.837 0-115.782-52.201-115.782-116.364s51.945-116.364 115.782-116.364c63.837 0 115.782 52.201 115.782 116.364 0 12.847 10.356 23.273 23.156 23.273s23.156-10.426 23.156-23.273c0-89.833-72.727-162.909-162.095-162.909zM671.721 738.909c0 0-23.156 0-23.156 0s0-23.273 0-23.273c0-12.847-10.356-23.273-23.156-23.273s-23.156 10.426-23.156 23.273c0 0 0 23.273 0 23.273s-23.156 0-23.156 0c-12.8 0-23.156 10.426-23.156 23.273s10.356 23.273 23.156 23.273c0 0 23.156 0 23.156 0s0 23.273 0 23.273c0 12.847 10.356 23.273 23.156 23.273s23.156-10.426 23.156-23.273c0 0 0-23.273 0-23.273s23.156 0 23.156 0c12.8 0 23.156-10.426 23.156-23.273s-10.356-23.273-23.156-23.273z" />
<glyph unicode="&#xe60b;" d="M1018.275 640.931c0 0-92.625-348.020-92.625-348.020-2.7-10.147-11.869-17.222-22.365-17.222 0 0-694.691 0-694.691 0-25.53 0-46.313-20.806-46.313-46.406 0-19.596 12.381-37.167 30.79-43.729 4.957-1.769 10.193-2.676 15.523-2.676 0 0 694.691 0 694.691 0 12.8 0 23.156-10.38 23.156-23.203 0-12.8-10.356-23.203-23.156-23.203 0 0-59.206 0-59.206 0 7.983-13.684 12.893-29.417 12.893-46.383 0-51.177-41.542-92.812-92.625-92.812s-92.625 41.635-92.625 92.812c0 16.966 4.911 32.698 12.87 46.383 0 0-326.796 0-326.796 0 7.983-13.684 12.893-29.417 12.893-46.383 0-51.177-41.542-92.812-92.625-92.812s-92.625 41.635-92.625 92.812c0 17.315 5.073 33.35 13.335 47.22-7.215 0.768-14.359 2.071-21.225 4.515-36.841 13.126-61.58 48.268-61.58 87.459 0 42.519 28.672 78.452 67.654 89.391 0 0-43.101 496.663-43.101 496.663s-124.509 41.588-124.509 41.588c-12.125 4.049-18.665 17.199-14.615 29.347s17.036 18.781 29.277 14.662c0 0 138.938-46.406 138.938-46.406 8.751-2.909 14.941-10.775 15.732-19.991 0 0 10.356-119.273 10.356-119.273s61.3-9.053 61.3-9.053c1.14 1.35 2.095 2.839 3.584 3.933 0 0 243.13 177.827 243.13 177.827 10.333 7.587 24.855 5.283 32.372-5.050 0 0 111.942-153.623 111.942-153.623s158.743 61.44 158.743 61.44c11.869 4.608 25.321-1.303 29.929-13.265 0 0 64.070-166.097 64.070-166.097s59.392-8.751 59.392-8.751c0 0 13.382 50.269 13.382 50.269 3.305 12.404 16.012 19.689 28.323 16.431 12.358-3.305 19.712-16.012 16.407-28.393zM764.346 43.683c25.53 0 46.313 20.806 46.313 46.406 0 25.577-20.783 46.383-46.313 46.383s-46.313-20.806-46.313-46.383c0-25.6 20.783-46.406 46.313-46.406zM278.063 43.683c25.53 0 46.313 20.806 46.313 46.406 0 25.577-20.783 46.383-46.313 46.383s-46.313-20.806-46.313-46.383c0-25.6 20.783-46.406 46.313-46.406zM512.349 836.817c0 0-191.441-140.009-191.441-140.009s328.727-48.431 328.727-48.431c0 0-137.286 188.439-137.286 188.439zM801.862 739.095c0 0-125.58-48.593-125.58-48.593s37.283-51.2 37.283-51.2c0.093-0.116 0.116-0.256 0.186-0.372 0 0 134.377-19.805 134.377-19.805s-46.266 119.971-46.266 119.971zM199.82 667.741c0 0 29.999-345.647 29.999-345.647s655.663 0 655.663 0c0 0 62.673 235.38 62.673 235.38s-748.335 110.266-748.335 110.266z" />
<glyph unicode="&#xe60c;" d="M591.644 83.911c-238.41 0-432.356 193.946-432.356 432.356s193.946 432.356 432.356 432.356c238.41 0 432.356-193.946 432.356-432.356s-193.946-432.356-432.356-432.356zM591.644 903.111c-213.311 0-386.844-173.534-386.844-386.844s173.534-386.844 386.844-386.844c213.311 0 386.844 173.534 386.844 386.844s-173.534 386.844-386.844 386.844zM591.644 174.933c-188.211 0-341.333 153.122-341.333 341.333 0 12.561 10.172 22.756 22.756 22.756s22.756-10.194 22.756-22.756c0-163.135 132.71-295.822 295.822-295.822s295.822 132.688 295.822 295.822c0 163.112-132.71 295.822-295.822 295.822-12.584 0-22.756 10.194-22.756 22.756s10.172 22.756 22.756 22.756c188.234 0 341.333-153.122 341.333-341.333s-153.099-341.333-341.333-341.333zM682.667 516.267c0-50.199-40.823-91.022-91.022-91.022s-91.022 40.823-91.022 91.022c0 50.199 40.823 91.022 91.022 91.022s91.022-40.823 91.022-91.022zM546.133 516.267c0-25.099 20.434-45.511 45.511-45.511 25.099 0 45.511 20.412 45.511 45.511s-20.412 45.511-45.511 45.511c-25.077 0-45.511-20.412-45.511-45.511zM243.644 191.022c8.897-8.897 8.897-23.279 0-32.176 0 0-136.533-136.533-136.533-136.533-4.437-4.437-10.263-6.667-16.088-6.667s-11.651 2.23-16.088 6.667c-8.897 8.897-8.897 23.279 0 32.176 0 0 136.533 136.533 136.533 136.533 8.897 8.897 23.279 8.897 32.176 0zM227.556-29.867c0-12.561-10.172-22.756-22.756-22.756 0 0-182.044 0-182.044 0-12.584 0-22.756 10.194-22.756 22.756 0 0 0 182.044 0 182.044 0 12.561 10.172 22.756 22.756 22.756s22.756-10.194 22.756-22.756c0 0 0-159.289 0-159.289s159.289 0 159.289 0c12.584 0 22.756-10.194 22.756-22.756z" />
<glyph unicode="&#xe60d;" d="M1008.957 315.758c-3.023-1.243-6.193-1.853-9.338-1.853-6.339 0-12.581 2.487-17.237 7.144 0 0-114.761 114.761-114.761 114.761s-501.906 0-501.906 0c-13.483 0-24.381 10.923-24.381 24.381 0 0 0 73.143 0 73.143s-292.571 0-292.571 0c0 0 0-477.525 0-477.525s80.286 80.286 80.286 80.286c4.559 4.559 10.752 7.144 17.237 7.144 0 0 487.619 0 487.619 0s0 219.404 0 219.404c0 13.483 10.898 24.405 24.381 24.405s24.381-10.923 24.381-24.405c0 0 0-243.785 0-243.785 0-13.458-10.898-24.381-24.381-24.381 0 0-501.906 0-501.906 0s-114.761-114.761-114.761-114.761c-4.657-4.657-10.898-7.144-17.237-7.144-3.145 0-6.315 0.61-9.338 1.853-9.118 3.779-15.043 12.678-15.043 22.528 0 0 0 560.762 0 560.762 0 13.458 10.898 24.381 24.381 24.381 0 0 316.952 0 316.952 0s0 316.952 0 316.952c0 13.458 10.898 24.381 24.381 24.381 0 0 633.905 0 633.905 0 13.483 0 24.381-10.923 24.381-24.381 0 0 0-560.762 0-560.762 0-9.85-5.925-18.749-15.043-22.528zM975.238 874.667c0 0-585.143 0-585.143 0s0-390.095 0-390.095c0 0 487.619 0 487.619 0 6.485 0 12.678-2.56 17.237-7.144 0 0 80.286-80.286 80.286-80.286s0 477.525 0 477.525zM755.81 704c0 0 121.905 0 121.905 0s0-48.762 0-48.762c0 0-121.905 0-121.905 0s0 48.762 0 48.762zM609.524 704c0 0 121.905 0 121.905 0s0-48.762 0-48.762c0 0-121.905 0-121.905 0s0 48.762 0 48.762zM463.238 704c0 0 121.905 0 121.905 0s0-48.762 0-48.762c0 0-121.905 0-121.905 0s0 48.762 0 48.762z" />
<glyph unicode="&#xe60e;" d="M512 378.182c-3.537 0-7.098 0.791-10.403 2.467 0 0-139.636 69.795-139.636 69.795-11.497 5.748-16.175 19.735-10.403 31.232 5.748 11.473 19.689 16.128 31.209 10.403 0 0 125.556-62.767 125.556-62.767s197.655 175.709 197.655 175.709c9.658 8.564 24.32 7.68 32.884-1.932 8.518-9.588 7.657-24.32-1.932-32.838 0 0-209.455-186.182-209.455-186.182-4.375-3.887-9.891-5.888-15.476-5.888zM1000.727 424.727c-12.847 0-23.273 10.403-23.273 23.273 0 256.652-208.803 465.455-465.455 465.455s-465.455-208.803-465.455-465.455c0-248.832 196.305-452.724 442.182-464.896 0 0 0 46.615 0 46.615-220.207 12.125-395.636 195.095-395.636 418.281 0 230.982 187.927 418.909 418.909 418.909s418.909-187.927 418.909-418.909c0-164.259-96.721-314.112-246.388-381.836-11.729-5.329-25.507-0.093-30.813 11.613-5.283 11.706-0.093 25.484 11.613 30.79 133.073 60.207 219.043 193.443 219.043 339.433 0 205.312-167.052 372.364-372.364 372.364s-372.364-167.052-372.364-372.364c0-205.312 167.052-372.364 372.364-372.364 12.847 0 23.273-10.403 23.273-23.273 0 0 0-93.091 0-93.091 0-12.87-10.426-23.273-23.273-23.273-282.321 0-512 229.679-512 512s229.679 512 512 512c282.321 0 512-229.679 512-512 0-12.87-10.426-23.273-23.273-23.273z" />
<glyph unicode="&#xe60f;" d="M785.86-64c-91.898 0-166.698 74.776-166.698 166.698s74.8 166.698 166.698 166.698c91.898 0 166.698-74.776 166.698-166.698s-74.8-166.698-166.698-166.698zM785.86 221.767c-65.655 0-119.070-53.415-119.070-119.070s53.415-119.070 119.070-119.070c65.655 0 119.070 53.415 119.070 119.070s-53.415 119.070-119.070 119.070zM807.174 44.425c-3.048-6.12-8.597-10.621-15.193-12.359-2.024-0.548-4.072-0.81-6.12-0.81-4.644 0-9.264 1.357-13.217 4.001 0 0-71.442 47.628-71.442 47.628-10.954 7.287-13.907 22.076-6.596 33.030 7.287 10.954 22.028 13.931 33.030 6.596 0 0 48.985-32.673 48.985-32.673s35.578 71.132 35.578 71.132c5.882 11.764 20.194 16.527 31.935 10.645 11.764-5.882 16.551-20.17 10.669-31.935 0 0-47.628-95.256-47.628-95.256zM595.349 78.884c0 0-500.093 0-500.093 0-13.169 0-23.814 10.669-23.814 23.814 0 0 0 833.488 0 833.488 0 13.145 10.645 23.814 23.814 23.814 0 0 619.163 0 619.163 0 13.169 0 23.814-10.669 23.814-23.814s-10.645-23.814-23.814-23.814c0 0-452.465 0-452.465 0s0-142.884 0-142.884c0 0 452.465 0 452.465 0 13.169 0 23.814-10.669 23.814-23.814s-10.645-23.814-23.814-23.814c0 0-452.465 0-452.465 0s0-166.698 0-166.698c0 0 452.465 0 452.465 0 13.169 0 23.814-10.669 23.814-23.814s-10.645-23.814-23.814-23.814c0 0-452.465 0-452.465 0s0-166.698 0-166.698c0 0 452.465 0 452.465 0 13.169 0 23.814-10.669 23.814-23.814s-10.645-23.814-23.814-23.814c0 0-452.465 0-452.465 0s0-166.698 0-166.698c0 0 333.395 0 333.395 0 13.169 0 23.814-10.669 23.814-23.814s-10.645-23.814-23.814-23.814zM214.326 912.372c0 0-95.256 0-95.256 0s0-142.884 0-142.884c0 0 95.256 0 95.256 0s0 142.884 0 142.884zM214.326 721.86c0 0-95.256 0-95.256 0s0-166.698 0-166.698c0 0 95.256 0 95.256 0s0 166.698 0 166.698zM214.326 507.535c0 0-95.256 0-95.256 0s0-166.698 0-166.698c0 0 95.256 0 95.256 0s0 166.698 0 166.698zM214.326 293.209c0 0-95.256 0-95.256 0s0-166.698 0-166.698c0 0 95.256 0 95.256 0s0 166.698 0 166.698z" />
<glyph unicode="&#xe610;" d="M1014.056 681.518c0 0-522.149-477.867-522.149-477.867-4.187-3.846-9.648-5.962-15.292-5.962-0.774 0-1.525 0.046-2.298 0.114-6.417 0.66-12.288 4.028-16.065 9.262 0 0-181.612 250.311-181.612 250.311-7.396 10.149-5.143 24.394 4.983 31.79 10.149 7.396 24.348 5.143 31.721-5.029 0 0 166.707-229.74 166.707-229.74s503.398 460.709 503.398 460.709c9.284 8.488 23.62 7.828 32.063-1.456 8.465-9.262 7.805-23.666-1.456-32.131zM113.368 106.667c-12.538 0-22.687 10.172-22.687 22.756 0 0 0 613.558 0 613.558 0 50.631 41.097 91.864 91.637 91.864 0 0 612.124 0 612.124 0 12.538 0 22.687-10.172 22.687-22.756s-10.149-22.756-22.687-22.756c0 0-612.124 0-612.124 0-25.509 0-46.239-20.799-46.239-46.353 0 0 0-613.558 0-613.558 0-12.584-10.172-22.756-22.71-22.756zM930.657 779.344c-12.538 0-22.71 10.194-22.71 22.756 0 43.145-35.021 78.256-78.074 78.256 0 0-706.537 0-706.537 0-43.054 0-78.074-35.112-78.074-78.256 0 0 0-708.221 0-708.221 0-43.122 35.021-78.234 78.074-78.234 0 0 706.537 0 706.537 0 43.054 0 78.074 35.112 78.074 78.234 0 0 0 354.122 0 354.122 0 12.584 10.172 22.756 22.71 22.756 12.516 0 22.687-10.172 22.687-22.756 0 0 0-354.122 0-354.122 0-68.244-55.387-123.745-123.472-123.745 0 0-706.537 0-706.537 0-68.085 0-123.472 55.501-123.472 123.745 0 0 0 708.221 0 708.221 0 68.244 55.387 123.767 123.472 123.767 0 0 706.537 0 706.537 0 68.085 0 123.472-55.524 123.472-123.767 0-12.561-10.172-22.756-22.687-22.756z" />
<glyph unicode="&#xe611;" d="M141.617 393.532c0 204.234 166.149 370.383 370.383 370.383s370.383-166.149 370.383-370.383c0-204.234-166.149-370.383-370.383-370.383s-370.383 166.149-370.383 370.383zM838.809 393.532c0 180.202-146.606 326.809-326.809 326.809s-326.809-146.606-326.809-326.809c0-180.224 146.606-326.809 326.809-326.809s326.809 146.585 326.809 326.809zM490.213 153.872c0 0 0 65.362 0 65.362 0 12.048 9.761 21.787 21.787 21.787s21.787-9.739 21.787-21.787c0 0 0-65.362 0-65.362 0-12.048-9.761-21.787-21.787-21.787s-21.787 9.739-21.787 21.787zM686.298 415.319c0 0 65.362 0 65.362 0 12.027 0 21.787-9.739 21.787-21.787s-9.761-21.787-21.787-21.787c0 0-65.362 0-65.362 0-12.027 0-21.787 9.739-21.787 21.787s9.761 21.787 21.787 21.787zM512 546.043c-12.027 0-21.787 9.739-21.787 21.787 0 0 0 65.362 0 65.362 0 12.048 9.761 21.787 21.787 21.787s21.787-9.739 21.787-21.787c0 0 0-65.362 0-65.362 0-12.048-9.761-21.787-21.787-21.787zM337.702 371.745c0 0-65.362 0-65.362 0-12.027 0-21.787 9.739-21.787 21.787s9.761 21.787 21.787 21.787c0 0 65.362 0 65.362 0 12.027 0 21.787-9.739 21.787-21.787s-9.761-21.787-21.787-21.787zM839.266 73.804c0 0 81.92-102.4 81.92-102.4 7.517-9.412 5.991-23.116-3.399-30.633-4.031-3.225-8.824-4.771-13.595-4.771-6.405 0-12.724 2.789-17.038 8.17 0 0-87.149 108.936-87.149 108.936-3.094 3.878-4.771 8.671-4.771 13.617 0 0 0 15.643 0 15.643 0 5.839 2.353 11.46 6.536 15.556 80.090 78.478 124.187 183.449 124.187 295.609 0 228.265-185.693 413.957-413.957 413.957-35.056 0-69.872-4.379-103.489-13.029 0 0 0-0.022 0-0.022-182.817-47.039-310.468-211.903-310.468-400.907 0-121.181 52.66-230.008 135.909-305.784 2.985-0.719 5.861-1.961 8.41-4.009 3.203-2.549 5.142-5.926 6.471-9.521 71.571-59.087 163.295-94.644 263.168-94.644 72.791 0 144.362 19.151 206.957 55.361 10.414 6.035 23.726 2.484 29.761-7.931 6.035-10.436 2.484-23.748-7.931-29.783-69.24-40.045-148.349-61.222-228.788-61.222-106.278 0-203.95 36.733-281.709 97.759 0 0-71.658-89.589-71.658-89.589-4.292-5.36-10.632-8.17-17.038-8.17-4.771 0-9.565 1.547-13.573 4.771-9.412 7.517-10.937 21.221-3.421 30.633 0 0 72.704 90.875 72.704 90.875-87.759 83.402-142.837 200.9-142.837 331.253 0 203.231 133.752 380.841 327.070 438.25 1.373 70.896 59.239 128.218 130.462 128.218 71.201 0 129.046-57.279 130.462-128.131 188.874-56.342 327.070-231.402 327.070-438.337 0-120.636-46.189-233.799-130.266-319.728zM512 916.426c-43.662 0-79.589-32.376-85.863-74.338 28.258 5.381 56.908 8.976 85.863 8.976 29.347 0 57.976-3.050 85.798-8.345-6.536 41.657-42.354 73.706-85.798 73.706z" />
<glyph unicode="&#xe612;" d="M369.024 512.427c-1.429-0.299-2.837-0.427-4.245-0.427-9.941 0-18.837 6.976-20.885 17.109-1.707 8.384-2.56 16.981-2.56 25.557 0 70.592 57.408 128 128 128 11.776 0 21.333-9.557 21.333-21.333s-9.536-21.333-21.333-21.333c-47.061 0-85.333-38.272-85.333-85.333 0-5.739 0.576-11.499 1.707-17.109 2.347-11.541-5.12-22.805-16.683-25.131zM832 128c0 0-682.667 0-682.667 0-4.032 0-7.829 1.131-11.051 3.072-78.677 15.189-138.283 84.544-138.283 167.595 0 11.797 9.557 21.333 21.333 21.333s21.333-9.536 21.333-21.333c0-70.592 57.408-128 128-128 0 0 661.333 0 661.333 0 82.347 0 149.333 67.008 149.333 149.333 0 82.347-66.987 149.333-149.333 149.333-11.776 0-21.333 9.557-21.333 21.333 0 58.816-47.851 106.667-106.667 106.667-14.528 0-28.672-2.901-42.005-8.619-0.427-0.171-0.853-0.107-1.28-0.256-0.427-0.171-0.725-0.491-1.173-0.619-0.981-0.299-1.941-0.107-2.901-0.256-1.472-0.213-2.859-0.448-4.309-0.341-1.323 0.064-2.56 0.405-3.84 0.725-1.365 0.341-2.688 0.661-3.947 1.28-1.237 0.576-2.261 1.344-3.349 2.155-1.109 0.811-2.176 1.579-3.136 2.603-0.96 1.045-1.664 2.261-2.411 3.499-0.512 0.853-1.259 1.472-1.664 2.411-0.171 0.405-0.128 0.853-0.277 1.259-0.149 0.427-0.491 0.747-0.619 1.195-21.035 72.405-88.384 122.965-163.755 122.965-94.101 0-170.667-76.565-170.667-170.667 0-11.776-9.557-21.333-21.333-21.333-11.115 0-19.968 8.597-20.949 19.456-60.629-10.048-107.051-62.699-107.051-126.123 0-11.776-9.557-21.333-21.333-21.333s-21.333 9.557-21.333 21.333c0 88.299 67.435 161.152 153.493 169.792 19.499 97.685 105.835 171.541 209.173 171.541 86.805 0 164.971-53.717 197.333-132.928 12.16 3.157 24.619 4.928 37.333 4.928 75.456 0 138.027-56.256 147.968-129.024 96.512-10.027 172.032-91.861 172.032-190.976 0-105.877-86.144-192-192-192z" />
<glyph unicode="&#xe613;" d="M1023.619 504.558c0-32.339-17.884-61.464-47.628-83.754 1.167-0.643 2.477-0.953 3.548-1.81 28.434-22.504 44.080-51.319 44.080-81.134 0-71.775-87.516-128-199.275-128-3.001 0-5.787 0.691-8.43 1.691-11.121-94.66-92.422-168.388-190.893-168.388-106.020 0-192.298 85.468-192.298 190.512s86.278 190.512 192.298 190.512c18.67 0 36.673-2.786 53.772-7.716-33.411 22.79-53.772 53.605-53.772 88.088 0 29.815 15.67 58.63 44.080 81.11 1.095 0.881 2.381 1.167 3.572 1.834-29.767 22.29-47.652 51.414-47.652 83.754 0 26.91 13.336 52.748 36.721 74.109-23.1 20.909-36.721 46.58-36.721 74.728 0 71.775 87.564 128 199.323 128s199.275-56.225 199.275-128c0-28.148-13.598-53.82-36.697-74.728 23.385-21.361 36.697-47.199 36.697-74.109 0-32.339-17.884-61.464-47.628-83.754 1.167-0.643 2.477-0.953 3.548-1.81 28.434-22.504 44.080-51.319 44.080-81.134zM480.804 233.674c0-78.8 64.703-142.884 144.217-142.884 79.539 0 144.217 64.083 144.217 142.884s-64.679 142.884-144.217 142.884c-79.515 0-144.217-64.083-144.217-142.884zM824.344 900.465c-80.563 0-151.242-37.555-151.242-80.372s70.68-80.372 151.242-80.372c80.563 0 151.219 37.555 151.219 80.372s-70.656 80.372-151.219 80.372zM949.558 715.169c-1.215 0.953-1.881 2.239-2.858 3.358-33.578-16.575-75.8-26.433-122.356-26.433-46.58 0-88.802 9.859-122.38 26.433-0.976-1.119-1.643-2.405-2.858-3.358-11.859-9.407-26.005-24.624-26.005-43.913 0-42.817 70.68-80.372 151.242-80.372s151.219 37.555 151.219 80.372c0 19.289-14.169 34.53-26.005 43.913zM949.558 548.471c-5.906 4.668-8.644 11.502-8.692 18.432-32.601-14.884-72.633-23.647-116.522-23.647-43.913 0-83.968 8.764-116.545 23.647-0.048-6.93-2.786-13.764-8.692-18.432-11.859-9.407-26.005-24.624-26.005-43.913 0-42.817 70.68-80.372 151.242-80.372s151.219 37.555 151.219 80.372c0 19.289-14.169 34.53-26.005 43.913zM949.558 381.773c-5.906 4.668-8.644 11.502-8.692 18.432-32.601-14.884-72.633-23.647-116.522-23.647-32.458 0-62.774 4.858-89.588 13.36 44.056-30.482 74.633-78.681 81.158-134.12 2.643 1 5.43 1.691 8.43 1.691 80.563 0 151.219 37.555 151.219 80.372 0 19.289-14.169 34.53-26.005 43.913zM379.666 590.884c-91.541 0-163.268 46.818-163.268 106.567 0 21.266 9.811 41.651 27.029 58.844-17.075 16.884-27.029 37.221-27.029 59.368 0 59.773 71.728 106.567 163.268 106.567 91.517 0 163.221-46.794 163.221-106.567 0-22.147-9.93-42.484-27.005-59.344 17.194-17.217 27.005-37.602 27.005-58.868 0-59.749-71.704-106.567-163.221-106.567zM379.666 874.603c-67.894 0-115.188-31.053-115.188-58.94 0-27.862 47.295-58.94 115.188-58.94 67.846 0 115.164 31.077 115.164 58.94 0 27.886-47.318 58.94-115.164 58.94zM476.017 728.505c-0.238 0.191-0.333 0.476-0.572 0.667-26.767-12.55-59.606-20.075-95.78-20.075-36.197 0-69.037 7.525-95.827 20.075-0.214-0.191-0.31-0.476-0.572-0.667-8.549-6.787-18.789-17.694-18.789-31.053 0-27.886 47.295-58.94 115.188-58.94 67.846 0 115.164 31.053 115.164 58.94 0 13.383-10.24 24.266-18.813 31.053zM422.721 420.209c0-30.125-14.86-57.558-39.984-79.801 25.481-22.719 39.984-50.414 39.984-79.229 0-34.792-19.742-66.012-52.367-89.731 2.024-0.833 4.072-1.572 5.858-2.977 29.982-23.695 46.509-54.034 46.509-85.421 0-75.776-92.827-135.144-211.325-135.144s-211.325 59.368-211.325 135.144c0 31.363 16.503 61.702 46.485 85.397 1.786 1.429 3.858 2.167 5.882 3.001-32.649 23.719-52.367 54.939-52.367 89.731 0 28.815 14.479 56.511 39.984 79.229-25.124 22.242-39.984 49.676-39.984 79.801 0 75.8 92.827 135.168 211.325 135.168s211.325-59.368 211.325-135.168zM48.152 83.051c0-47.437 74.752-87.516 163.245-87.516 88.469 0 163.245 40.079 163.245 87.516 0 21.266-15.455 37.959-28.434 48.199-6.644 5.239-9.287 13.264-8.478 21.075-35.030-16.503-78.515-26.291-126.333-26.291s-91.327 9.788-126.381 26.314c0.833-7.811-1.81-15.836-8.478-21.099-12.955-10.264-28.386-26.934-28.386-48.199zM211.396 507.749c-88.493 0-163.245-40.079-163.245-87.54 0-47.437 74.752-87.492 163.245-87.492 88.469 0 163.245 40.055 163.245 87.492 0 47.461-74.776 87.54-163.245 87.54zM346.207 309.379c-1.548 1.215-2.477 2.81-3.644 4.287-35.816-17.908-81.134-28.577-131.167-28.577s-95.375 10.669-131.191 28.601c-1.167-1.476-2.119-3.096-3.667-4.31-12.955-10.264-28.386-26.934-28.386-48.199 0-47.437 74.752-87.516 163.245-87.516 88.469 0 163.245 40.079 163.245 87.516 0 21.266-15.455 37.936-28.434 48.199z" />
<glyph unicode="&#xe614;" d="M975.238 667.429c0 0 0 211.212 0 211.212s-495.177-472.649-495.177-472.649c0 0-33.646 35.255-33.646 35.255s492.349 469.992 492.349 469.992c0 0-207.336 0-207.336 0s0 48.762 0 48.762c0 0 292.571 0 292.571 0s0-292.571 0-292.571c0 0-48.762 0-48.762 0zM170.667 106.667c0 0 609.524 0 609.524 0s0-48.762 0-48.762c0 0-658.286 0-658.286 0s0 755.81 0 755.81c0 0-22.674 0-22.674 0-27.819 0-50.469-22.65-50.469-50.469 0 0 0-778.484 0-778.484s773.681 0 773.681 0c30.476 0 55.272 24.795 55.272 55.272 0 0 0 529.871 0 529.871s48.762 0 48.762 0c0 0 0-529.871 0-529.871 0-57.368-46.665-104.034-104.034-104.034 0 0-798.062 0-798.062 0-13.458 0-24.381 10.923-24.381 24.381 0 0 0 802.865 0 802.865 0 54.711 44.52 99.23 99.23 99.23 0 0 534.674 0 534.674 0s0-48.762 0-48.762c0 0-463.238 0-463.238 0s0-707.048 0-707.048z" />
<glyph unicode="&#xe615;" d="M1014.74 595.042c0 0-450.059-444.59-450.059-444.59-4.118-4.074-9.674-6.362-15.513-6.362-5.817 0-11.395 2.288-15.513 6.362 0 0-310.359 306.612-310.359 306.612-8.562 8.475-8.562 22.179 0 30.655 0 0 450.037 444.59 450.037 444.59 8.562 8.453 22.463 8.453 31.025 0 0 0 310.381-306.612 310.381-306.612 4.118-4.074 6.427-9.586 6.427-15.338s-2.309-11.264-6.427-15.316zM688.847 886.316c0 0-418.99-413.936-418.99-413.936s279.312-275.957 279.312-275.957c0 0 419.012 413.936 419.012 413.936s-279.334 275.957-279.334 275.957zM447.51 375.165c-2.309-0.741-4.662-1.111-6.95-1.111-9.194 0-17.757 5.73-20.807 14.815-3.333 9.804 0.85 20.306 9.477 25.426 8.628 7.037 51.265 49.915 88.565 88.413 8.41 8.671 22.332 8.933 31.025 0.675 8.78-8.279 9.085-22.005 0.697-30.655-91.049-93.947-96.125-95.624-102.008-97.563zM688.847 824.985c8.236 8.127 22.789 8.127 31.025 0 0 0 93.119-91.986 93.119-91.986 4.118-4.052 6.427-9.586 6.427-15.316 0-5.752-2.309-11.264-6.427-15.338 0 0-77.606-76.647-77.606-76.647-4.27-4.249-9.891-6.362-15.513-6.362-5.599 0-11.22 2.113-15.513 6.362 0 0-93.097 91.986-93.097 91.986-8.584 8.453-8.584 22.179 0 30.655 0 0 77.584 76.647 77.584 76.647zM719.872 671.668c0 0 46.581 46.015 46.581 46.015s-62.094 61.309-62.094 61.309c0 0-46.559-45.993-46.559-45.993s62.072-61.331 62.072-61.331zM385.394 436.475c-2.288-0.763-4.619-1.111-6.928-1.111-9.194 0-17.757 5.752-20.829 14.837-3.225 9.652 0.763 19.957 9.085 25.186 10.806 8.933 77.323 75.427 135.691 134.754 8.41 8.562 22.332 8.802 31.025 0.436 8.693-8.345 8.867-22.070 0.436-30.655-137.565-139.852-142.14-141.356-148.48-143.447zM37.082 242.416c-4.292-4.227-9.891-6.34-15.513-6.34s-11.22 2.113-15.513 6.34c-8.584 8.475-8.584 22.201 0 30.676 0 0 139.634 137.979 139.634 137.979 8.584 8.453 22.463 8.453 31.047 0 8.562-8.475 8.562-22.201 0-30.655 0 0-139.656-138-139.656-138zM238.832 319.085c8.562 8.453 22.441 8.453 31.025 0 8.562-8.475 8.562-22.201 0-30.655 0 0-93.119-91.986-93.119-91.986-4.292-4.249-9.913-6.362-15.513-6.362-5.621 0-11.242 2.113-15.534 6.362-8.562 8.453-8.562 22.179 0 30.655 0 0 93.14 91.986 93.14 91.986zM207.785 104.459c8.584 8.453 22.463 8.453 31.047 0 8.562-8.475 8.562-22.201 0-30.655 0 0-46.581-46.015-46.581-46.015-4.292-4.227-9.891-6.34-15.513-6.34s-11.242 2.113-15.513 6.34c-8.584 8.475-8.584 22.201 0 30.676 0 0 46.559 45.993 46.559 45.993zM331.929 227.099c8.562 8.475 22.463 8.475 31.025 0 8.584-8.453 8.584-22.201 0-30.655 0 0-46.538-45.993-46.538-45.993-4.292-4.249-9.913-6.362-15.534-6.362-5.599 0-11.22 2.113-15.513 6.362-8.562 8.453-8.562 22.179 0 30.655 0 0 46.559 45.993 46.559 45.993zM425.047 135.114c8.562 8.475 22.463 8.475 31.025 0 8.584-8.475 8.584-22.201 0-30.655 0 0-139.656-137.979-139.656-137.979-4.292-4.227-9.913-6.34-15.534-6.34-5.599 0-11.22 2.113-15.513 6.34-8.562 8.475-8.562 22.201 0 30.655 0 0 139.678 137.979 139.678 137.979z" />
<glyph unicode="&#xe616;" d="M219.429 594.286c-53.784 0-97.524 43.739-97.524 97.524s43.739 97.524 97.524 97.524c53.784 0 97.524-43.739 97.524-97.524s-43.739-97.524-97.524-97.524zM219.429 740.571c-26.868 0-48.762-21.87-48.762-48.762s21.894-48.762 48.762-48.762c26.892 0 48.762 21.87 48.762 48.762s-21.87 48.762-48.762 48.762zM219.429 277.333c-67.218 0-121.905 54.686-121.905 121.905s54.686 121.905 121.905 121.905c67.218 0 121.905-54.686 121.905-121.905s-54.686-121.905-121.905-121.905zM219.429 472.381c-40.326 0-73.143-32.817-73.143-73.143s32.817-73.143 73.143-73.143c40.326 0 73.143 32.817 73.143 73.143s-32.817 73.143-73.143 73.143zM512 204.19c53.784 0 97.524-43.739 97.524-97.524s-43.739-97.524-97.524-97.524c-53.784 0-97.524 43.739-97.524 97.524s43.739 97.524 97.524 97.524zM512 57.905c26.892 0 48.762 21.87 48.762 48.762s-21.87 48.762-48.762 48.762c-26.868 0-48.762-21.87-48.762-48.762s21.894-48.762 48.762-48.762zM512 569.905c-67.218 0-121.905 54.686-121.905 121.905s54.686 121.905 121.905 121.905c67.218 0 121.905-54.686 121.905-121.905s-54.686-121.905-121.905-121.905zM512 764.952c-40.326 0-73.143-32.817-73.143-73.143s32.817-73.143 73.143-73.143c40.326 0 73.143 32.817 73.143 73.143s-32.817 73.143-73.143 73.143zM512 277.333c-67.218 0-121.905 54.686-121.905 121.905s54.686 121.905 121.905 121.905c67.218 0 121.905-54.686 121.905-121.905s-54.686-121.905-121.905-121.905zM512 472.381c-40.326 0-73.143-32.817-73.143-73.143s32.817-73.143 73.143-73.143c40.326 0 73.143 32.817 73.143 73.143s-32.817 73.143-73.143 73.143zM813.349-64c0 0-602.697 0-602.697 0-116.151 0-210.651 94.501-210.651 210.651 0 0 0 740.206 0 740.206 0 13.458 10.898 24.381 24.381 24.381 0 0 828.952 0 828.952 0 13.483 0 24.381-10.923 24.381-24.381s-10.898-24.381-24.381-24.381c0 0-804.571 0-804.571 0s0-715.825 0-715.825c0-89.283 72.631-161.89 161.89-161.89 0 0 602.697 0 602.697 0 89.283 0 161.89 72.606 161.89 161.89 0 0 0 788.968 0 788.968 0 13.458 10.898 24.381 24.381 24.381s24.381-10.923 24.381-24.381c0 0 0-788.968 0-788.968 0-116.151-94.501-210.651-210.651-210.651zM804.571 594.286c-53.784 0-97.524 43.739-97.524 97.524s43.739 97.524 97.524 97.524c53.784 0 97.524-43.739 97.524-97.524s-43.739-97.524-97.524-97.524zM804.571 740.571c-26.868 0-48.762-21.87-48.762-48.762s21.894-48.762 48.762-48.762c26.868 0 48.762 21.87 48.762 48.762s-21.894 48.762-48.762 48.762zM804.571 277.333c-67.218 0-121.905 54.686-121.905 121.905s54.686 121.905 121.905 121.905c67.218 0 121.905-54.686 121.905-121.905s-54.686-121.905-121.905-121.905zM804.571 472.381c-40.326 0-73.143-32.817-73.143-73.143s32.817-73.143 73.143-73.143c40.326 0 73.143 32.817 73.143 73.143s-32.817 73.143-73.143 73.143z" />
<glyph unicode="&#xe617;" d="M947.614 606.501c11.63-22.43 9.826-49.201-4.706-69.851 0 0-414.842-590.312-414.842-590.312-4.535-6.485-11.995-10.338-19.895-10.338-7.924 0-15.36 3.852-19.895 10.338 0 0-414.866 590.312-414.866 590.312-14.531 20.651-16.335 47.421-4.706 69.851 3.633 6.997 8.631 12.8 14.165 17.969-1.902 2.877-4.145 5.461-5.632 8.68-11.142 24.088-7.436 51.663 9.679 71.924 0 0 192.585 227.889 192.585 227.889 14.385 17.018 35.401 26.77 57.661 26.77 0 0 341.992 0 341.992 0 22.284 0 43.301-9.752 57.685-26.77 0 0 192.585-227.889 192.585-227.889 17.115-20.261 20.821-47.835 9.655-71.924-1.487-3.218-3.706-5.803-5.608-8.68 5.534-5.169 10.533-10.971 14.141-17.969zM346.38 594.115c0 0 160.207-521.411 160.207-521.411s140.215 521.411 140.215 521.411c0 0-300.422 0-300.422 0zM637.806 642.853c0 0-131.048 243.712-131.048 243.712s-149.772-243.712-149.772-243.712c0 0 280.82 0 280.82 0zM111.933 584.046c-1.585-3.023-4.584-10.971 1.268-19.334 0 0 339.87-483.596 339.87-483.596s-157.623 513-157.623 513c0 0-157.111 0-157.111 0s-9.874 0-9.874 0c-10.216 0-14.97-7.046-16.53-10.069zM316.684 901.461c0 0-192.585-227.864-192.585-227.864-6.949-8.216-4.194-16.677-2.682-19.919 1.512-3.267 6.168-10.825 16.92-10.825 0 0 161.475 0 161.475 0s164.791 268.142 164.791 268.142c0 0-127.439 0-127.439 0-7.899 0-15.384-3.462-20.48-9.533zM892.245 673.597c0 0-192.585 227.864-192.585 227.864-5.12 6.071-12.581 9.533-20.504 9.533 0 0-130.219 0-130.219 0s144.189-268.142 144.189-268.142c0 0 184.881 0 184.881 0 10.728 0 15.384 7.558 16.92 10.825 1.487 3.243 4.242 11.703-2.682 19.919zM904.411 584.046c-1.56 3.023-6.315 10.069-16.555 10.069 0 0-9.85 0-9.85 0s-180.785 0-180.785 0c0 0-140.386-522.142-140.386-522.142s346.283 492.739 346.283 492.739c5.876 8.363 2.853 16.311 1.292 19.334z" />
<glyph unicode="&#xe618;" d="M145.641 643.793c-5.958 0-11.916 2.257-16.454 6.796-9.1 9.076-9.1 23.761 0 32.838 0 0 82.269 82.060 82.269 82.060 9.1 9.076 23.808 9.076 32.908 0 9.1-9.053 9.1-23.761 0-32.815 0 0-82.269-82.083-82.269-82.083-4.538-4.538-10.496-6.796-16.454-6.796zM359.54 735.465c9.1-9.053 9.1-23.738 0-32.815 0 0-148.084-147.735-148.084-147.735-4.538-4.538-10.496-6.819-16.454-6.819s-11.916 2.281-16.454 6.819c-9.1 9.053-9.1 23.761 0 32.815 0 0 148.084 147.735 148.084 147.735 9.1 9.076 23.831 9.076 32.908 0zM943.965 193.885c0 0-292.329 0-292.329 0-12.87 0-23.273 10.403-23.273 23.226s10.403 23.203 23.273 23.203c0 0 292.329 0 292.329 0 18.455 0 33.489 14.988 33.489 33.396 0 0 0 536.832 0 536.832 0 18.432-15.034 33.396-33.489 33.396 0 0-863.93 0-863.93 0-18.479 0-33.489-14.964-33.489-33.396 0 0 0-477.347 0-477.347s861.091 0 861.091 0c12.87 0 23.273-10.403 23.273-23.226s-10.403-23.226-23.273-23.226c0 0-861.091 0-861.091 0s0-13.033 0-13.033c0-18.409 15.011-33.396 33.489-33.396 0 0 431.965 0 431.965 0 10.868 0 19.572-7.564 22.132-17.617 0 0 168.518-168.099 168.518-168.099s88.623 0 88.623 0c12.87 0 23.273-10.403 23.273-23.226s-10.403-23.203-23.273-23.203c0 0-93.091 0-93.091 0-0.908 0-1.652 0.396-2.537 0.512-0.884-0.116-1.722-0.512-2.63-0.512-5.935 0-11.892 2.257-16.454 6.796 0 0-164.561 164.166-164.561 164.166s-164.561-164.166-164.561-164.166c-5.236-5.213-12.288-7.075-19.084-6.284-0.884-0.116-1.629-0.512-2.537-0.512 0 0-93.091 0-93.091 0-12.87 0-23.273 10.38-23.273 23.203s10.403 23.226 23.273 23.226c0 0 88.623 0 88.623 0s139.636 139.287 139.636 139.287c0 0-380.951 0-380.951 0-44.125 0-80.035 35.817-80.035 79.825 0 0 0 536.832 0 536.832 0 44.009 35.91 79.825 80.035 79.825 0 0 863.93 0 863.93 0 44.125 0 80.035-35.817 80.035-79.825 0 0 0-536.832 0-536.832 0-44.009-35.91-79.825-80.035-79.825z" />
<glyph unicode="&#xe619;" d="M512-64c-282.321 0-512 229.679-512 512s229.679 512 512 512c282.321 0 512-229.679 512-512s-229.679-512-512-512zM512 913.455c-256.652 0-465.455-208.803-465.455-465.455 0-248.809 196.375-452.026 442.182-464.268 0 0 0 69.306 0 69.306-207.36 12.102-372.364 184.623-372.364 394.961 0 218.159 177.478 395.636 395.636 395.636s395.636-177.478 395.636-395.636c0-12.87-10.426-23.273-23.273-23.273s-23.273 10.403-23.273 23.273c0 192.489-156.602 349.091-349.091 349.091s-349.091-156.602-349.091-349.091c0-192.512 156.602-349.091 349.091-349.091 12.847 0 23.273-10.403 23.273-23.273 0 0 0-91.904 0-91.904 245.807 12.241 442.182 215.459 442.182 464.268 0 256.652-208.803 465.455-465.455 465.455zM721.455 424.727c0 0-418.909 0-418.909 0-12.847 0-23.273 10.403-23.273 23.273s10.426 23.273 23.273 23.273c0 0 418.909 0 418.909 0 12.847 0 23.273-10.403 23.273-23.273s-10.426-23.273-23.273-23.273zM535.273 564.364c0 0-46.545 0-46.545 0-12.847 0-23.273 10.403-23.273 23.273s10.426 23.273 23.273 23.273c0 0 46.545 0 46.545 0 12.847 0 23.273-10.403 23.273-23.273s-10.426-23.273-23.273-23.273zM488.727 331.636c0 0 46.545 0 46.545 0 12.847 0 23.273-10.403 23.273-23.273s-10.426-23.273-23.273-23.273c0 0-46.545 0-46.545 0-12.847 0-23.273 10.403-23.273 23.273s10.426 23.273 23.273 23.273z" />
<glyph unicode="&#xe61a;" d="M995.174-37.606c0 0-844.902 0-844.902 0-73.114 0-133.99 52.71-147.277 122.189-2.458 5.171-3.046 10.906-1.69 16.666-0.307 3.917-1.178 7.68-1.178 11.674 0 0 0 591.13 0 591.13 0 0.64 0.333 1.178 0.384 1.818 0.128 1.792 0.538 3.43 1.024 5.12 0.435 1.562 0.87 3.046 1.562 4.454 0.742 1.459 1.69 2.688 2.688 3.968 1.024 1.331 1.997 2.586 3.251 3.686 1.178 1.024 2.483 1.792 3.866 2.611 1.51 0.896 2.995 1.715 4.685 2.278 0.614 0.205 1.050 0.666 1.69 0.819 0 0 790.938 204.595 790.938 204.595 7.040 1.843 14.618 0.538 20.71-3.61 6.067-4.122 10.086-10.675 10.982-17.971 0 0 22.707-182.195 22.707-182.195s130.56 0 130.56 0c14.106 0 25.523-11.443 25.523-25.574 0 0 0-716.083 0-716.083 0-14.106-11.418-25.574-25.523-25.574zM51.174 422.733c0 0 0-153.446 0-153.446s0-156.365 0-156.365c0-0.333 0.077-0.614 0.077-0.947 32.154-14.131 66.278-21.709 101.965-21.709 140.672 0 255.155 114.714 255.155 255.744s-114.483 255.744-255.155 255.744c-35.686 0-69.862-7.603-102.042-21.76 0 0 0-157.261 0-157.261zM794.854 876.621c0 0-568.243-146.995-568.243-146.995s586.573 0 586.573 0c0 0-18.33 146.995-18.33 146.995zM969.677 678.477c0 0-176.845 0-176.845 0 11.571-92.365 84.685-165.658 176.845-177.254 0 0 0 177.254 0 177.254zM969.677 449.613c-120.346 12.032-216.346 108.211-228.352 228.864 0 0-690.15 0-690.15 0s0-43.238 0-43.238c32.563 11.597 66.714 17.664 102.042 17.664 168.832 0 306.176-137.677 306.176-306.893s-137.344-306.893-306.176-306.893c-27.008 0-53.274 3.763-78.746 10.547 18.202-21.862 45.235-36.122 75.802-36.122 0 0 589.773 0 589.773 0 0 132.403 100.89 241.587 229.632 254.464 0 0 0 181.606 0 181.606zM969.677 216.371c-100.531-12.646-178.611-98.688-178.611-202.829 0 0 178.611 0 178.611 0s0 202.829 0 202.829zM127.693 521.395c0 0 0 29.21 0 29.21 0 14.131 11.418 25.574 25.523 25.574s25.523-11.443 25.523-25.574c0 0 0-29.21 0-29.21 43.904-11.443 76.544-51.123 76.544-98.662 0-14.131-11.418-25.574-25.523-25.574s-25.523 11.443-25.523 25.574c0 18.842-10.317 35.149-25.498 44.032 0 0 0-98.816 0-98.816 43.904-11.418 76.544-51.123 76.544-98.662 0-47.514-32.64-87.219-76.544-98.662 0 0 0-29.21 0-29.21 0-14.106-11.418-25.574-25.523-25.574s-25.523 11.469-25.523 25.574c0 0 0 29.21 0 29.21-43.878 11.443-76.518 51.149-76.518 98.662 0 14.131 11.392 25.574 25.498 25.574s25.523-11.443 25.523-25.574c0-18.842 10.342-35.149 25.498-44.032 0 0 0 98.816 0 98.816-43.878 11.443-76.518 51.149-76.518 98.662 0 47.539 32.64 87.219 76.518 98.662zM178.739 225.254c15.181 8.883 25.498 25.19 25.498 44.032s-10.317 35.174-25.498 44.032c0 0 0-88.064 0-88.064zM127.693 378.701c0 0 0 88.064 0 88.064-15.155-8.883-25.498-25.19-25.498-44.032s10.342-35.149 25.498-44.032z" />
<glyph unicode="&#xe61b;" d="M938.862 159.671c0 0-40.497 27.38-40.497 27.38 96.963 142.385 107.106 325.242 26.453 477.208-90.843 171.179-274.822 262.12-457.289 244.2 7.144-18.432 15.604-40.277 21.358-55.394 3.73-9.85 7.314-23.893 11.874-41.667 10.508-41.179 26.38-103.375 54.248-144.238 12.288-18.018 24.844-20.773 45.641-25.332 31.378-6.9 74.386-16.36 112.884-88.917 6.705-12.581 24.43-46.007 5.778-69.925-20.382-26.088-60.611-16.433-111.567-4.194-30.037 7.241-71.095 17.091-85.528 10.703-10.069-4.462-13.824-6.144 6.656-52.882 9.947-22.626 21.163-48.299 24.113-75.898 5.681-53.248-49.908-84.968-103.692-115.663-30.939-17.676-66.024-37.693-75.654-56.198-4.242-8.143-2.828-12.044 1.268-16.36 15.872-16.798 65.877-25.283 97.256-11.337 34.060 15.165 208.189 88.527 291.109 43.813 64.658-34.914 145.018-80.36 145.822-80.798 0 0-24.186-42.423-24.186-42.423-0.78 0.463-80.701 45.666-144.969 80.311-45.178 24.357-160.11-6.412-247.832-45.422-48.494-21.528-121.344-10.898-152.82 22.382-19.163 20.261-22.479 46.616-9.094 72.314 16.262 31.232 54.394 52.98 94.769 76.044 36.376 20.748 81.652 46.616 79.36 68.169-2.146 20.139-11.386 41.204-20.285 61.562-15.896 36.254-39.936 91.063 18.237 116.931 29.598 13.19 74.045 2.511 116.931-7.826 18.237-4.389 44.081-10.606 57.832-11.069-1.195 3.413-3.218 8.29-6.754 14.97-27.941 52.59-52.151 57.905-80.189 64.073-23.308 5.12-52.346 11.508-75.581 45.568-32.695 47.909-49.859 115.127-61.196 159.598-3.998 15.653-7.436 29.16-10.216 36.425-6.802 17.896-17.335 45.105-25.039 64.951-41.472-8.655-82.456-22.772-121.734-43.471-74.85-39.448-137.362-98.255-180.785-170.106 0 0-41.911 25.186-41.911 25.186 47.982 79.433 117.077 144.433 199.802 188.026 250.563 132.023 562.176 36.328 694.662-213.309 89.137-167.985 77.922-370.054-29.233-527.384zM218.965 605.964c41.862-7.948 73.435-33.938 98.792-54.808 9.192-7.558 22.577-18.603 29.282-21.406 3.803 4.876 13.141 22.747 22.796 85.699 6.827 44.471-16.555 58.295-75.63 81.408-14.434 5.632-29.33 11.483-43.13 18.603-26.624 13.8-28.989 32.354-28.038 42.179 3.316 34.158 57.271 56.93 101.937 69.998 0 0 13.824-46.787 13.824-46.787-22.821-6.705-46.787-16.896-59.587-24.869 10.069-4.803 21.211-9.167 32.914-13.726 50.42-19.724 119.491-46.738 106.106-134.168-12.361-80.774-27.063-114.615-54.199-124.928-5.291-2.024-10.435-2.926-15.506-2.926-21.504 0-41.253 16.286-61.928 33.304-22.162 18.261-47.299 38.936-76.8 44.52-67.438 12.8-112.518 29.769-145.457 42.13-17.603 6.632-31.549 11.874-42.228 13.873 0 0 9.021 47.933 9.021 47.933 14.921-2.779 30.622-8.704 50.517-16.165 31.232-11.752 74.021-27.843 137.314-39.863zM102.619 231.010c58.051-109.397 155.404-189.733 274.139-226.182 118.735-36.474 244.565-24.674 354.353 33.182 26.331 13.873 51.298 30.232 74.289 48.616 0 0 30.622-38.034 30.622-38.034-25.381-20.309-52.955-38.376-82.018-53.687-75.118-39.57-157.038-59.66-239.64-59.66-50.907 0-102.059 7.607-152.064 22.967-131.194 40.302-238.763 129.097-302.958 250.027-58.563 110.299-74.679 237.787-45.422 358.985 0 0 47.592-11.41 47.592-11.41-26.478-109.641-11.874-224.987 41.106-324.803z" />
<glyph unicode="&#xe61c;" d="M1018.252 640.931c0 0-92.625-348.020-92.625-348.020-2.676-10.147-11.869-17.222-22.365-17.222 0 0-694.668 0-694.668 0-25.53 0-46.313-20.806-46.313-46.406 0-19.596 12.358-37.167 30.767-43.729 4.98-1.769 10.193-2.653 15.546-2.653 0 0 694.668 0 694.668 0 12.8 0 23.156-10.403 23.156-23.203 0-12.823-10.356-23.203-23.156-23.203 0 0-59.183 0-59.183 0 7.983-13.708 12.87-29.44 12.87-46.406 0-51.177-41.519-92.812-92.625-92.812-51.084 0-92.625 41.635-92.625 92.812 0 16.966 4.911 32.698 12.893 46.406 0 0-326.796 0-326.796 0 7.983-13.708 12.893-29.44 12.893-46.406 0-51.177-41.542-92.812-92.625-92.812s-92.625 41.635-92.625 92.812c0 17.315 5.050 33.35 13.335 47.244-7.238 0.768-14.359 2.048-21.225 4.492-36.841 13.126-61.58 48.268-61.58 87.459 0 42.519 28.672 78.452 67.654 89.391 0 0-43.101 496.663-43.101 496.663s-124.509 41.588-124.509 41.588c-12.125 4.049-18.688 17.199-14.639 29.347 4.026 12.148 17.036 18.781 29.277 14.662 0 0 138.938-46.383 138.938-46.383 8.751-2.932 14.964-10.799 15.756-20.015 0 0 10.333-119.273 10.333-119.273s764.463-112.64 764.463-112.64c0 0 13.382 50.269 13.382 50.269 3.305 12.404 16.012 19.689 28.346 16.454 12.335-3.328 19.689-16.035 16.384-28.416zM764.323 43.683c25.53 0 46.313 20.806 46.313 46.406 0 25.577-20.783 46.406-46.313 46.406s-46.313-20.829-46.313-46.406c0-25.6 20.783-46.406 46.313-46.406zM278.063 43.683c25.53 0 46.313 20.806 46.313 46.406 0 25.577-20.783 46.406-46.313 46.406s-46.313-20.829-46.313-46.406c0-25.6 20.783-46.406 46.313-46.406zM229.818 322.095c0 0 655.663 0 655.663 0s38.028 142.895 38.028 142.895c0 0-715.52 108.637-715.52 108.637s21.83-251.532 21.83-251.532zM199.82 667.741c0 0 4.026-46.545 4.026-46.545s731.671-111.081 731.671-111.081c0 0 12.614 47.383 12.614 47.383s-748.311 110.243-748.311 110.243z" />
<glyph unicode="&#xe61d;" d="M956.035 78.884c0 0-888.046 0-888.046 0-37.507 0-67.989 30.506-67.989 67.989 0 0 0 602.255 0 602.255 0 37.483 30.482 67.989 67.989 67.989 0 0 888.046 0 888.046 0 37.483 0 67.965-30.506 67.965-67.989 0 0 0-602.255 0-602.255 0-37.483-30.482-67.989-67.965-67.989zM976.372 749.127c0 11.24-9.145 20.361-20.337 20.361 0 0-888.046 0-888.046 0-11.216 0-20.361-9.121-20.361-20.361 0 0 0-3.453 0-3.453s47.628 0 47.628 0c13.169 0 23.814-10.669 23.814-23.814 0-52.534 42.722-95.256 95.256-95.256s95.256 42.722 95.256 95.256c0 13.145 10.645 23.814 23.814 23.814 0 0 642.977 0 642.977 0s0 3.453 0 3.453zM976.372 698.047c0 0-621.568 0-621.568 0-11.431-67.441-69.846-119.070-140.479-119.070s-129.048 51.629-140.479 119.070c0 0-26.219 0-26.219 0s0-500.093 0-500.093c0 0 928.744 0 928.744 0s0 500.093 0 500.093zM976.372 150.326c0 0-928.744 0-928.744 0s0-3.453 0-3.453c0-11.24 9.145-20.361 20.361-20.361 0 0 888.046 0 888.046 0 11.193 0 20.337 9.121 20.337 20.361 0 0 0 3.453 0 3.453zM619.163 412.279c0 0 261.953 0 261.953 0 13.169 0 23.814-10.669 23.814-23.814s-10.645-23.814-23.814-23.814c0 0-261.953 0-261.953 0-13.169 0-23.814 10.669-23.814 23.814s10.645 23.814 23.814 23.814zM619.163 317.023c0 0 261.953 0 261.953 0 13.169 0 23.814-10.669 23.814-23.814s-10.645-23.814-23.814-23.814c0 0-261.953 0-261.953 0-13.169 0-23.814 10.669-23.814 23.814s10.645 23.814 23.814 23.814z" />
<glyph unicode="&#xe61e;" d="M512-64c-282.321 0-512 229.679-512 512s229.679 512 512 512c282.321 0 512-229.679 512-512s-229.679-512-512-512zM512 913.455c-256.652 0-465.455-208.803-465.455-465.455 0-248.809 196.375-452.026 442.182-464.268 0 0 0 69.306 0 69.306-207.36 12.102-372.364 184.623-372.364 394.961 0 218.159 177.478 395.636 395.636 395.636s395.636-177.478 395.636-395.636c0-12.87-10.426-23.273-23.273-23.273s-23.273 10.403-23.273 23.273c0 192.489-156.602 349.091-349.091 349.091s-349.091-156.602-349.091-349.091c0-192.512 156.602-349.091 349.091-349.091 12.847 0 23.273-10.403 23.273-23.273 0 0 0-91.904 0-91.904 245.807 12.241 442.182 215.459 442.182 464.268 0 256.652-208.803 465.455-465.455 465.455zM674.909 378.182c0 0-325.818 0-325.818 0-12.847 0-23.273 10.403-23.273 23.273s10.426 23.273 23.273 23.273c0 0 325.818 0 325.818 0 12.847 0 23.273-10.403 23.273-23.273s-10.426-23.273-23.273-23.273zM674.909 471.273c0 0-325.818 0-325.818 0-12.847 0-23.273 10.403-23.273 23.273s10.426 23.273 23.273 23.273c0 0 325.818 0 325.818 0 12.847 0 23.273-10.403 23.273-23.273s-10.426-23.273-23.273-23.273z" />
<glyph unicode="&#xe61f;" d="M870.4 268.8c-70.579 0-128 57.421-128 128 0 61.798 44.058 113.51 102.4 125.414 0 0 0 437.786 0 437.786s51.2 0 51.2 0c0 0 0-437.786 0-437.786 58.342-11.904 102.4-63.616 102.4-125.414 0-70.579-57.421-128-128-128zM870.4 473.6c-42.342 0-76.8-34.458-76.8-76.8s34.458-76.8 76.8-76.8c42.342 0 76.8 34.458 76.8 76.8s-34.458 76.8-76.8 76.8zM537.6 627.2c-70.579 0-128 57.421-128 128 0 61.798 44.058 113.51 102.4 125.414 0 0 0 79.386 0 79.386s51.2 0 51.2 0c0 0 0-79.386 0-79.386 58.342-11.904 102.4-63.616 102.4-125.414 0-70.579-57.421-128-128-128zM537.6 832c-42.342 0-76.8-34.458-76.8-76.8s34.458-76.8 76.8-76.8c42.342 0 76.8 34.458 76.8 76.8s-34.458 76.8-76.8 76.8zM153.6 422.4c-70.579 0-128 57.421-128 128 0 61.798 44.058 113.51 102.4 125.414 0 0 0 284.186 0 284.186s51.2 0 51.2 0c0 0 0-284.186 0-284.186 58.342-11.904 102.4-63.616 102.4-125.414 0-70.579-57.421-128-128-128zM153.6 627.2c-42.342 0-76.8-34.458-76.8-76.8s34.458-76.8 76.8-76.8c42.342 0 76.8 34.458 76.8 76.8s-34.458 76.8-76.8 76.8zM179.2 371.2c0 0 0-256 0-256s-51.2 0-51.2 0c0 0 0 256 0 256s51.2 0 51.2 0zM230.4-64c0 0-153.6 0-153.6 0s0 153.6 0 153.6c0 0 153.6 0 153.6 0s0-153.6 0-153.6zM179.2 38.4c0 0-51.2 0-51.2 0s0-51.2 0-51.2c0 0 51.2 0 51.2 0s0 51.2 0 51.2zM563.2 576c0 0 0-460.8 0-460.8s-51.2 0-51.2 0c0 0 0 460.8 0 460.8s51.2 0 51.2 0zM614.4-64c0 0-153.6 0-153.6 0s0 153.6 0 153.6c0 0 153.6 0 153.6 0s0-153.6 0-153.6zM563.2 38.4c0 0-51.2 0-51.2 0s0-51.2 0-51.2c0 0 51.2 0 51.2 0s0 51.2 0 51.2zM896 217.6c0 0 0-102.4 0-102.4s-51.2 0-51.2 0c0 0 0 102.4 0 102.4s51.2 0 51.2 0zM947.2-64c0 0-153.6 0-153.6 0s0 153.6 0 153.6c0 0 153.6 0 153.6 0s0-153.6 0-153.6zM896 38.4c0 0-51.2 0-51.2 0s0-51.2 0-51.2c0 0 51.2 0 51.2 0s0 51.2 0 51.2z" />
<glyph unicode="&#xe620;" d="M955.733-18.489c-12.584 0-22.756 10.194-22.756 22.756 0 0 0 79.644 0 79.644 0 31.38-25.509 56.889-56.889 56.889s-56.889-25.509-56.889-56.889c0 0 0-34.133 0-34.133s0-91.022 0-91.022c0-12.561-10.172-22.756-22.756-22.756s-22.756 10.194-22.756 22.756c0 0 0 91.022 0 91.022s0 34.133 0 34.133c0 0 0 45.511 0 45.511 0 31.38-25.509 56.889-56.889 56.889s-56.889-25.509-56.889-56.889c0 0 0-79.644 0-79.644s0-45.511 0-45.511c0-12.561-10.172-22.756-22.756-22.756s-22.756 10.194-22.756 22.756c0 0 0 45.511 0 45.511s0 79.644 0 79.644c0 31.38-25.509 56.889-56.889 56.889s-56.889-25.509-56.889-56.889c0 0 0-147.911 0-147.911s0-22.756 0-22.756c0-12.561-10.172-22.756-22.756-22.756s-22.756 10.194-22.756 22.756c0 0 0 22.756 0 22.756s0 147.911 0 147.911c0 0 0 443.733 0 443.733 0 31.38-25.509 56.889-56.889 56.889s-56.889-25.509-56.889-56.889c0 0 0-500.622 0-500.622 0-12.561-10.172-22.756-22.756-22.756s-22.756 10.194-22.756 22.756c0 0 0 28.080 0 28.080s-79.303-47.582-79.303-47.582c-3.664-2.207-7.714-3.254-11.696-3.254-7.737 0-15.269 3.937-19.524 11.059-6.485 10.763-2.981 24.758 7.782 31.221 0 0 102.741 61.645 102.741 61.645s0 419.453 0 419.453c0 56.479 45.943 102.4 102.4 102.4s102.4-45.921 102.4-102.4c0 0 0-358.65 0-358.65 16.293 10.923 35.84 17.317 56.889 17.317 32.336 0 60.871-15.36 79.644-38.821 18.773 23.461 47.309 38.821 79.644 38.821 44.351 0 81.829-28.49 96.028-67.994 17.476 13.858 39.276 22.482 63.26 22.482 56.457 0 102.4-45.921 102.4-102.4 0 0 0-79.644 0-79.644 0-12.561-10.172-22.756-22.756-22.756zM398.222 755.2c-81.556 0-147.911-66.355-147.911-147.911 0-12.561-10.172-22.756-22.756-22.756s-22.756 10.194-22.756 22.756c0 106.655 86.767 193.422 193.422 193.422 106.633 0 193.422-86.767 193.422-193.422 0-4.324-0.159-8.602-0.432-12.857-0.774-12.038-10.786-21.276-22.687-21.276-0.478 0-1.001 0-1.479 0.046-12.561 0.819-22.050 11.628-21.254 24.189 0.228 3.277 0.341 6.576 0.341 9.899 0 81.556-66.355 147.911-147.911 147.911zM557.557 323.026c-10.945-6.281-24.849-2.571-31.084 8.306-6.326 10.877-2.571 24.804 8.283 31.107 91.25 52.77 147.911 150.96 147.911 256.228 0 163.135-132.71 295.822-295.822 295.822s-295.822-132.688-295.822-295.822c0-113.641 66.378-218.59 169.097-267.378 11.355-5.393 16.202-18.978 10.786-30.333-3.891-8.192-12.060-12.993-20.571-12.993-3.277 0-6.576 0.705-9.739 2.207-118.511 56.274-195.083 177.38-195.083 308.497 0 188.211 153.122 341.333 341.333 341.333 188.234 0 341.333-153.122 341.333-341.333 0-121.469-65.377-234.746-170.621-295.64z" />
<glyph unicode="&#xe621;" d="M834.42 776.425c0 0-159.255-81.455-159.255-81.455-3.444-1.769-7.168-2.607-10.822-2.607-8.518 0-16.78 4.561-20.969 12.567-5.981 11.404-1.466 25.437 10.1 31.372 0 0 73.356 37.516 73.356 37.516s-410.484 0-410.484 0c-13.033 0-23.599 10.426-23.599 23.273s10.566 23.273 23.599 23.273c0 0 507.206 0 507.206 0 10.892 0 20.34-7.331 22.924-17.757s-2.42-21.225-12.055-26.182zM722.036 564.364c0 0-245.039 118.761-245.039 118.761-11.706 5.655-16.524 19.596-10.799 31.139 5.748 11.543 19.852 16.337 31.581 10.612 0 0 336.175-162.909 336.175-162.909 9.868-4.771 15.057-15.593 12.567-26.159-2.467-10.519-12.009-17.99-22.97-17.99 0 0-530.804 0-530.804 0s0-349.091 0-349.091c0 0 47.197 0 47.197 0 13.033 0 23.575-10.426 23.575-23.273 0 0 0-186.182 0-186.182 0-12.847-10.543-23.273-23.575-23.273 0 0-141.568 0-141.568 0-13.033 0-23.575 10.426-23.575 23.273 0 0 0 186.182 0 186.182 0 12.847 10.543 23.273 23.575 23.273 0 0 47.197 0 47.197 0s0 768 0 768c0 12.847 10.543 23.273 23.575 23.273 13.056 0 23.599-10.426 23.599-23.273 0 0 0-139.636 0-139.636s0-232.727 0-232.727c0 0 429.289 0 429.289 0zM221.975-17.455c0 0 94.371 0 94.371 0s0 139.636 0 139.636c0 0-94.371 0-94.371 0s0-139.636 0-139.636z" />
<glyph unicode="&#xe622;" d="M857.816 503.046c-4.119-5.575-4.119-13.084 0-18.682 0 0 115.666-156.763 115.666-156.763 13.858-18.796 15.906-43.349 5.302-64.057-11.674-22.847-35.453-36.181-61.963-33.337 0 0-194.697 21.003-194.697 21.003-8.215 0.137-13.744-3.618-16.293-9.353 0 0-79.007-177.789-79.007-177.789-10.058-22.619-31.767-36.659-56.684-36.659-24.895 0-46.626 14.040-56.661 36.659 0 0-79.007 177.789-79.007 177.789-2.571 5.734-8.26 9.421-14.541 9.421 0 0-196.471-21.072-196.471-21.072-26.51-2.753-50.267 10.513-61.963 33.337-10.581 20.708-8.556 45.261 5.302 64.057 0 0 115.689 156.786 115.689 156.786 4.119 5.575 4.119 13.084 0 18.66 0 0-115.689 156.809-115.689 156.809-13.858 18.773-15.883 43.304-5.302 64.011 11.696 22.869 35.476 36.159 61.986 33.382 0 0 194.674-21.003 194.674-21.003 8.624-0.432 13.767 3.618 16.316 9.33 0 0 79.007 177.812 79.007 177.812 10.035 22.596 31.767 36.636 56.661 36.636 24.917 0 46.626-14.040 56.684-36.636 0 0 79.007-177.812 79.007-177.812 2.549-5.712 8.26-9.421 14.541-9.421 0 0 196.449 21.094 196.449 21.094 26.442 2.776 50.29-10.513 61.963-33.36 10.604-20.73 8.556-45.261-5.302-64.034 0 0-115.666-156.809-115.666-156.809zM937.756 703.226c-1.047 2.048-5.143 8.738-13.972 8.738 0 0-196.699-21.094-196.699-21.094-26.852-2.981-52.543 11.992-63.351 36.272 0 0-79.007 177.812-79.007 177.812-3.8 8.511-11.446 9.421-14.586 9.421-3.118 0-10.786-0.91-14.564-9.421 0 0-79.007-177.812-79.007-177.812-10.786-24.303-36.341-39.276-63.374-36.272 0 0-194.697 20.981-194.697 20.981-10.308 0.523-14.928-6.576-15.952-8.624-1.32-2.571-3.846-9.33 1.365-16.407 0 0 115.712-156.809 115.712-156.809 15.997-21.686 15.997-50.859 0-72.567 0 0-115.712-156.831-115.712-156.831-5.211-7.054-2.708-13.835-1.365-16.43 1.024-2.048 5.143-8.715 13.949-8.715 0 0 196.699 21.117 196.699 21.117 2.253 0.25 4.506 0.364 6.736 0.364 24.508 0 46.763-14.404 56.639-36.705 0 0 79.007-177.766 79.007-177.766 3.777-8.511 11.446-9.421 14.564-9.421s10.786 0.91 14.586 9.421c0 0 79.007 177.789 79.007 177.789 10.809 24.303 36.432 39.14 63.374 36.318 0 0 194.697-21.003 194.697-21.003 10.308-0.046 14.905 6.576 15.952 8.602 1.32 2.594 3.823 9.375-1.388 16.43 0 0-115.689 156.809-115.689 156.809-15.997 21.732-15.997 50.904 0 72.59 0 0 115.689 156.809 115.689 156.809 5.211 7.077 2.708 13.835 1.388 16.407zM568.821 415.437c-50.722 0-92.023 40.937-92.023 91.295s41.301 91.318 92.023 91.318c50.745 0 92.023-40.96 92.023-91.318s-41.279-91.295-92.023-91.295zM568.821 552.402c-25.372 0-46.012-20.503-46.012-45.67s20.639-45.648 46.012-45.648c25.372 0 46.012 20.48 46.012 45.648s-20.639 45.67-46.012 45.67zM364.203 174.569c0 0 41.165-20.434 41.165-20.434-94.913-188.325-312.343-217.975-362.086-217.975-4.483 0-7.578 0.228-9.125 0.614 0 0 5.552 22.141 5.552 22.141s3.391 22.551 3.391 22.551c2.822 0.637 228.466 9.239 321.104 193.104z" />
<glyph unicode="&#xe623;" d="M956.035 20.087c0 0-888.046 0-888.046 0-37.507 0-67.989 30.482-67.989 67.941 0 0 0 601.921 0 601.921 0 13.145 10.645 23.79 23.814 23.79s23.814-10.645 23.814-23.79c0 0 0 163.149 0 163.149 0 6.644 2.786 13.002 7.668 17.503s11.24 6.811 18.075 6.215c0 0 881.116-71.394 881.116-71.394 12.359-1 21.885-11.312 21.885-23.719 0 0 0-91.755 0-91.755 0 13.145 10.645 23.79 23.814 23.79s23.814-10.645 23.814-23.79c0 0 0-601.921 0-601.921 0-37.459-30.482-67.941-67.965-67.941zM95.256 827.285c0 0 0-140.788 0-140.788 13.169 0 23.814-10.645 23.814-23.79 0-52.51 42.722-95.208 95.256-95.208s95.256 42.698 95.256 95.208c0 13.145 10.645 23.79 23.814 23.79 0 0 595.349 0 595.349 0s0 73.252 0 73.252c0 0-833.488 67.536-833.488 67.536zM976.372 638.893c0 0-621.568 0-621.568 0-11.431-67.393-69.846-118.998-140.479-118.998s-129.048 51.605-140.479 118.998c0 0-26.219 0-26.219 0s0-499.807 0-499.807c0 0 928.744 0 928.744 0s0 499.807 0 499.807zM976.372 91.481c0 0-928.744 0-928.744 0s0-3.453 0-3.453c0-11.216 9.145-20.337 20.361-20.337 0 0 888.046 0 888.046 0 11.193 0 20.337 9.121 20.337 20.337 0 0 0 3.453 0 3.453zM619.163 353.292c0 0 261.953 0 261.953 0 13.169 0 23.814-10.669 23.814-23.79 0-13.145-10.645-23.814-23.814-23.814 0 0-261.953 0-261.953 0-13.169 0-23.814 10.669-23.814 23.814 0 13.121 10.645 23.79 23.814 23.79zM619.163 258.084c0 0 261.953 0 261.953 0 13.169 0 23.814-10.645 23.814-23.79s-10.645-23.814-23.814-23.814c0 0-261.953 0-261.953 0-13.169 0-23.814 10.669-23.814 23.814s10.645 23.79 23.814 23.79z" />
<glyph unicode="&#xe624;" d="M742.426-64c0 0-25.626 0-25.626 0s0 307.2 0 307.2c0 0 256 0 256 0s0 332.8 0 332.8c0 0 51.2 0 51.2 0s0-332.8 0-332.8c0 0 0-307.2 0-307.2s-281.574 0-281.574 0zM972.8 192c0 0-204.8 0-204.8 0s0-204.8 0-204.8c0 0 204.8 0 204.8 0s0 204.8 0 204.8zM716.8 908.8c0 0-332.8 0-332.8 0s0 51.2 0 51.2c0 0 332.8 0 332.8 0s307.2 0 307.2 0c0 0 0-281.6 0-281.6s0-25.6 0-25.6c0 0-307.2 0-307.2 0s0 256 0 256zM768 704c0 0 204.8 0 204.8 0s0 204.8 0 204.8c0 0-204.8 0-204.8 0s0-204.8 0-204.8zM640-64c0 0-332.8 0-332.8 0s-307.2 0-307.2 0c0 0 0 281.6 0 281.6s0 25.6 0 25.6c0 0 307.2 0 307.2 0s0-256 0-256c0 0 332.8 0 332.8 0s0-51.2 0-51.2zM256 192c0 0-204.8 0-204.8 0s0-204.8 0-204.8c0 0 204.8 0 204.8 0s0 204.8 0 204.8zM51.2 320c0 0-51.2 0-51.2 0s0 332.8 0 332.8c0 0 0 307.2 0 307.2s281.6 0 281.6 0c0 0 25.6 0 25.6 0s0-307.2 0-307.2c0 0-256 0-256 0s0-332.8 0-332.8zM256 704c0 0 0 204.8 0 204.8s-204.8 0-204.8 0c0 0 0-204.8 0-204.8s204.8 0 204.8 0z" />
<glyph unicode="&#xe625;" d="M1011.298 734.567c0 0-59.566-39.653-59.566-39.653s-75.079-187.457-75.079-187.457c16.057-13.268 30.546-28.628 42.485-46.407 23.966-35.709 36.646-77.432 36.646-120.614 0-119.612-97.454-216.935-217.241-216.935-53.553 0-104.993 19.609-144.842 55.231-4.641 4.161-7.277 10.087-7.233 16.319 0.044 6.209 2.767 12.114 7.451 16.21 0 0 217.241 188.917 217.241 188.917 9.020 7.865 22.768 6.95 30.655-2.113 7.887-9.042 6.928-22.724-2.092-30.589 0 0-197.349-171.618-197.349-171.618 28.323-18.802 61.701-28.977 96.169-28.977 95.82 0 173.797 77.868 173.797 173.557 0 34.555-10.153 67.911-29.326 96.474-8.715 13.007-19.107 24.467-30.633 34.446-1.699-0.414-3.442-0.763-5.229-0.763-2.68 0-5.425 0.501-8.061 1.547-7.778 3.116-12.528 10.305-13.312 18.105-26.123 15.186-56.037 23.726-87.236 23.726-95.842 0-173.819-77.846-173.819-173.535 0-13.029 1.438-26.014 4.314-38.607 1.678-7.386-0.959-14.489-5.861-19.565 3.116-9.085 0.261-19.391-8.127-24.946 0 0-65.166-43.4-65.166-43.4-3.66-2.418-7.865-3.638-12.070-3.638-4.183 0-8.388 1.22-12.048 3.638 0 0-52.093 34.685-52.093 34.685-34.729-73.772-109.655-125.102-196.564-125.102-53.553 0-104.971 19.609-144.82 55.231-4.641 4.161-7.277 10.087-7.233 16.319 0.044 6.209 2.767 12.114 7.451 16.21 0 0 217.241 188.917 217.241 188.917 8.998 7.865 22.768 6.95 30.655-2.113 7.887-9.042 6.928-22.724-2.113-30.589 0 0-197.327-171.618-197.327-171.618 28.323-18.802 61.701-28.977 96.147-28.977 95.842 0 173.819 77.868 173.819 173.557 0 34.555-10.153 67.911-29.326 96.474-32.376 48.259-86.386 77.061-144.493 77.061-31.134 0-60.307-8.323-85.624-22.702 0 0-2.832-7.037-2.832-7.037-3.377-8.475-11.547-13.639-20.175-13.639-1.634 0-3.268 0.545-4.902 0.937-36.82-31.853-60.263-78.739-60.263-131.094 0-13.029 1.438-26.014 4.314-38.607 2.636-11.678-4.706-23.291-16.406-25.927-11.7-2.723-23.334 4.662-25.992 16.362-3.573 15.73-5.36 31.94-5.36 48.172 0 75.079 38.411 141.312 96.605 180.289 0 0 78.739 196.564 78.739 196.564 1.634 4.052 4.466 7.538 8.127 9.979 0 0 65.187 43.378 65.187 43.378 10 6.667 23.487 3.965 30.11-6.013 6.667-9.957 3.965-23.443-6.013-30.066 0 0-59.566-39.653-59.566-39.653s-58.847-146.89-58.847-146.89c19.935 6.035 41.025 9.347 62.9 9.347 72.639 0 140.135-36.014 180.594-96.321 23.988-35.709 36.668-77.432 36.668-120.614 0-17.059-2.179-33.596-5.926-49.522 0 0 49.37-32.877 49.37-32.877s49.435 32.899 49.435 32.899c-0.153 0.479-0.501 0.828-0.61 1.329-3.551 15.73-5.36 31.94-5.36 48.172 0 119.612 97.454 216.935 217.262 216.935 35.884 0 70.503-8.867 101.245-25.034 0 0 74.098 184.952 74.098 184.952 1.634 4.052 4.466 7.538 8.127 9.979 0 0 65.187 43.378 65.187 43.378 9.979 6.667 23.487 3.965 30.11-6.013 6.667-9.957 3.965-23.443-6.013-30.066z" />
<glyph unicode="&#xe626;" d="M1012.291 582.856c-11.286-129.736-81.72-210.165-165.71-294.556-67.784-68.118-105.049-101.087-141.112-132.986-34.126-30.186-66.382-58.724-122.724-115.311-20.213-20.324-47.126-31.499-75.798-31.499 0 0 0 0 0 0-28.939 0-56.053 11.353-76.399 31.944-103.424 104.804-147.679 143.071-183.251 173.857-24.71 21.393-46.058 39.869-80.028 73.995-83.99 84.391-154.424 164.842-165.688 294.556-6.879 79.048 18.298 158.253 69.031 217.311 47.46 55.274 112.751 88.042 183.808 92.316 105.917 6.678 202.507-48.774 252.505-137.951 49.998 89.177 146.499 144.54 252.505 137.951 71.079-4.274 136.348-37.042 183.808-92.316 50.755-59.058 75.91-138.262 69.053-217.311zM909.869 771.228c-39.624 46.125-93.985 73.505-153.066 77.045-103.58 6.233-196.408-57.678-228.998-155.069 0 0-20.881-62.486-20.881-62.486s-20.881 62.486-20.881 62.486c-31.098 92.984-117.515 155.47-215.040 155.47-4.608 0-9.261-0.111-13.958-0.401-59.080-3.539-113.441-30.92-153.043-77.045-43.030-50.065-64.356-117.337-58.524-184.52 9.082-104.426 60.772-174.436 152.954-267.086 32.813-32.968 53.582-50.933 77.646-71.747 36.129-31.277 81.119-70.211 185.767-176.239 11.999-12.132 28.026-18.833 45.101-18.833 0 0 0 0 0 0 16.896 0 32.746 6.567 44.633 18.521 57.344 57.589 90.090 86.573 124.772 117.248 35.528 31.432 72.259 63.955 139.064 131.050 92.182 92.65 143.872 162.66 152.954 267.086 5.832 67.183-15.494 134.456-58.502 184.52zM727.819 739.395c0 0 0 44.299 0 44.299 97.213 0 176.328-79.494 176.328-177.197 0 0-44.099 0-44.099 0 0 73.283-59.303 132.897-132.23 132.897zM154.735 606.497c0 0-44.077 0-44.077 0 0 97.703 79.093 177.197 176.328 177.197 0 0 0-44.299 0-44.299-72.927 0-132.252-59.615-132.252-132.897z" />
<glyph unicode="&#xe627;" d="M723.883 353.259c11.712 0 21.227-9.536 21.227-21.291 0-11.776-9.515-21.291-21.227-21.291 0 0-127.317 0-127.317 0-11.712 0-21.227 9.515-21.227 21.291 0 11.755 9.515 21.291 21.227 21.291 0 0 127.317 0 127.317 0zM1001.941 438.421c-0.171 0.021-0.299 0.021-0.427 0 0 0-152.064 0-152.064 0s-40.768-449.088-40.768-449.088c-1.003-10.965-10.176-19.371-21.141-19.371 0 0-466.816 0-466.816 0-11.733 0-21.227 9.515-21.227 21.291 0 0 0 340.715 0 340.715 0 11.755 9.493 21.291 21.227 21.291 0 0 190.955 0 190.955 0 11.733 0 21.227-9.536 21.227-21.291 0 0 0-191.659 0-191.659 0-11.755-9.493-21.291-21.227-21.291-11.712 0-21.205 9.536-21.205 21.291 0 0 0 170.368 0 170.368s-148.544 0-148.544 0c0 0 0-298.133 0-298.133s426.24 0 426.24 0c0 0 38.656 425.877 38.656 425.877s-590.272 0-590.272 0c0 0 40.427-445.227 40.427-445.227 1.045-11.712-7.552-22.059-19.221-23.147-0.64-0.064-1.301-0.085-1.941-0.085-10.859 0-20.117 8.299-21.12 19.371 0 0-40.768 449.088-40.768 449.088s-152.064 0-152.064 0c-8.768 0-16.619 5.419-19.776 13.632-3.157 8.192-0.981 17.515 5.504 23.424 0 0 489.813 447.168 489.813 447.168 8.085 7.403 20.48 7.403 28.565 0 0 0 282.795-258.176 282.795-258.176s0 157.248 0 157.248c0 11.776 9.493 21.291 21.205 21.291 11.733 0 21.227-9.515 21.227-21.291 0 0 0-195.989 0-195.989s162.24-148.117 162.24-148.117c5.845-3.797 9.707-10.389 9.707-17.877 0-11.776-9.493-21.312-21.205-21.312zM830.016 587.499c-0.021 0-0.021 0-0.043 0-10.901 0-19.563 8.341-20.757 18.987 0 0-297.536 271.637-297.536 271.637s-434.944-397.099-434.944-397.099c0 0 116.565 0 116.565 0s636.779 0 636.779 0c0 0 116.565 0 116.565 0s-116.629 106.475-116.629 106.475zM511.68 566.187c-52.203 0-94.677 38.208-94.677 85.184s42.475 85.184 94.677 85.184c52.224 0 94.699-38.208 94.699-85.184s-42.475-85.184-94.699-85.184zM511.68 693.952c-28.8 0-52.245-19.093-52.245-42.581s23.445-42.581 52.245-42.581c28.821 0 52.267 19.093 52.267 42.581s-23.445 42.581-52.267 42.581z" />
<glyph unicode="&#xe628;" d="M431.215 301.724c11.42-4.586 16.985-17.519 12.422-28.961-3.495-8.682-11.843-13.98-20.68-14.002-2.76 0-5.565 0.534-8.259 1.603 0 0-111.304 44.522-111.304 44.522-8.459 3.406-14.002 11.576-14.002 20.68 0 0 0 46.77 0 46.77-7.279-1.224-14.648-2.248-22.261-2.248s-14.982 1.024-22.261 2.248c0 0 0-46.77 0-46.77 0-9.105-5.543-17.274-14.002-20.68 0 0-111.304-44.522-111.304-44.522-2.694-1.069-5.498-1.603-8.259-1.603-8.838 0-17.185 5.32-20.68 14.002-4.563 11.442 1.002 24.376 12.422 28.961 0 0 97.302 38.912 97.302 38.912s0 48.039 0 48.039c-39.736 23.151-66.783 65.759-66.783 114.977 0 73.661 59.904 133.565 133.565 133.565s133.565-59.904 133.565-133.565c0-49.219-27.047-91.826-66.783-114.977 0 0 0-48.039 0-48.039s97.302-38.912 97.302-38.912zM356.174 503.652c0 49.107-39.936 89.043-89.043 89.043s-89.043-39.936-89.043-89.043c0-49.107 39.936-89.043 89.043-89.043s89.043 39.936 89.043 89.043zM882.822 102.957c0 0-860.561 0-860.561 0-12.31 0-22.261 9.973-22.261 22.261 0 0 0 526.648 0 526.648 0 65.558 53.337 118.918 118.918 118.918 0 0 771.517 0 771.517 0 12.31 0 22.261-9.973 22.261-22.261s-9.951-22.261-22.261-22.261c0 0-771.517 0-771.517 0-41.027 0-74.396-33.369-74.396-74.396 0 0 0-504.387 0-504.387s838.3 0 838.3 0c42.607 0 96.657 35.039 96.657 74.396 0 0 0 548.909 0 548.909 0 12.288 9.951 22.261 22.261 22.261s22.261-9.973 22.261-22.261c0 0 0-548.909 0-548.909 0-66.961-75.887-118.918-141.178-118.918zM534.261 392.348c0 0 222.609 0 222.609 0 12.31 0 22.261-9.973 22.261-22.261s-9.951-22.261-22.261-22.261c0 0-222.609 0-222.609 0-12.31 0-22.261 9.973-22.261 22.261s9.951 22.261 22.261 22.261zM534.261 525.913c-12.31 0-22.261 9.973-22.261 22.261s9.951 22.261 22.261 22.261c0 0 133.565 0 133.565 0 12.31 0 22.261-9.973 22.261-22.261s-9.951-22.261-22.261-22.261c0 0-133.565 0-133.565 0zM734.609 525.913c-12.31 0-22.261 9.973-22.261 22.261s9.951 22.261 22.261 22.261c0 0 44.522 0 44.522 0 12.31 0 22.261-9.973 22.261-22.261s-9.951-22.261-22.261-22.261c0 0-44.522 0-44.522 0zM912.696 459.13c0-12.288-9.951-22.261-22.261-22.261 0 0-356.174 0-356.174 0-12.31 0-22.261 9.973-22.261 22.261s9.951 22.261 22.261 22.261c0 0 356.174 0 356.174 0 12.31 0 22.261-9.973 22.261-22.261z" />
<glyph unicode="&#xe629;" d="M1017.515 24.064c-4.416-14.379-17.557-24.064-32.747-24.064 0 0-950.229 0-950.229 0-15.189 0-28.331 9.685-32.747 24.064-3.925 12.928 0.107 26.56 10.112 35.243 0 0 88.491 118.4 88.491 118.4s0 430.549 0 430.549c0 41.024 33.685 74.411 75.136 74.411 0 0 668.245 0 668.245 0 41.451 0 75.136-33.387 75.136-74.411 0 0 0-430.549 0-430.549s88.491-118.4 88.491-118.4c10.005-8.683 14.037-22.315 10.112-35.243zM875.84 608.256c0 17.493-14.4 31.744-32.064 31.744 0 0-668.245 0-668.245 0-17.664 0-32.064-14.251-32.064-31.744 0 0 0-416.256 0-416.256s732.373 0 732.373 0c0 0 0 416.256 0 416.256zM886.528 149.333c0 0-753.749 0-753.749 0s-79.701-106.667-79.701-106.667c0 0 913.152 0 913.152 0s-79.701 106.667-79.701 106.667zM725.056 533.333c0 0-193.856 0-193.856 0s0-256 0-256c0 0 236.928 0 236.928 0s0 213.333 0 213.333c0 0 43.093 0 43.093 0s0-256 0-256c0 0-323.115 0-323.115 0s0 341.333 0 341.333c0 0 236.949 0 236.949 0s0-42.667 0-42.667zM746.603 554.667c0 23.573 19.285 42.667 43.072 42.667s43.093-19.093 43.093-42.667c0-23.573-19.307-42.667-43.093-42.667s-43.072 19.093-43.072 42.667zM563.456 753.771c-32.576 18.624-75.093 18.624-107.627-0.043 0 0-21.589 36.949-21.589 36.949 45.632 26.133 105.131 26.155 150.763 0.021 0 0-21.547-36.928-21.547-36.928zM509.653 853.333c-34.667 0-67.243-11.328-94.208-32.747 0 0-26.987 33.28-26.987 33.28 34.219 27.179 77.248 42.133 121.195 42.133 47.275 0 92.779-17.024 128.192-47.957 0 0-28.48-32-28.48-32-27.541 24.043-62.933 37.291-99.712 37.291z" />
<glyph unicode="&#xe62a;" d="M512-64c-282.328 0-512 229.672-512 512s229.672 512 512 512c240.775 0 446.087-163.759 499.308-398.228 0.216-0.97 0.377-1.994 0.512-2.991 0 0 12.019-107.789 12.019-107.789 0.108-0.997 0.162-1.994 0.162-2.991 0-282.328-229.672-512-512-512zM958.41 551.289c-48.128 208.977-231.478 354.816-446.41 354.816-252.605 0-458.105-205.501-458.105-458.105s205.501-458.105 458.105-458.105c252.093 0 457.297 204.719 458.105 456.623 0 0-11.695 104.771-11.695 104.771zM501.113 294.211c-5.282-5.255-12.18-7.896-19.052-7.896-6.899 0-13.797 2.641-19.052 7.896 0 0-123.446 123.419-123.446 123.419-5.066 5.066-7.896 11.911-7.896 19.079 0 7.141 2.829 13.986 7.896 19.052 0 0 126.437 126.437 126.437 126.437 10.536 10.536 27.567 10.536 38.104 0s10.536-27.567 0-38.104c0 0-107.385-107.385-107.385-107.385s104.394-104.394 104.394-104.394c10.509-10.536 10.509-27.567 0-38.104zM512 124.632c-178.311 0-323.368 145.058-323.368 323.368s145.058 323.368 323.368 323.368c14.902 0 26.947-12.072 26.947-26.947s-12.045-26.947-26.947-26.947c-148.588 0-269.474-120.886-269.474-269.474s120.886-269.474 269.474-269.474c139.48 0 254.545 106.55 268.099 242.526 0 0-241.152 0-241.152 0-14.902 0-26.947 12.072-26.947 26.947s12.045 26.947 26.947 26.947c0 0 269.474 0 269.474 0 14.902 0 26.947-12.072 26.947-26.947 0-178.311-145.058-323.368-323.368-323.368z" />
<glyph unicode="&#xe62b;" d="M713.795 269.802c-30.475-19.523-48.662-53.582-48.662-91.069 0 0 0-123.169 0-123.169s0-110.325 0-110.325c0 0-310.317 0-310.317 0s0 110.325 0 110.325c0 0 0 125.217 0 125.217 0 35.795-19.278 69.766-51.601 90.913-109.946 71.947-173.479 192.957-169.917 323.74 5.276 194.983 162.638 354.994 358.244 364.299 216.131 9.906 395.264-161.747 395.264-374.65 0-127.955-64.69-245.849-173.011-315.281zM399.137-10.641c0 0 221.674 0 221.674 0s0 66.204 0 66.204c0 0-221.674 0-221.674 0s0-66.204 0-66.204zM509.974 132.452c0 0-18.81-32.768-18.81-32.768s37.621 0 37.621 0c0 0-18.81 32.768-18.81 32.768zM608.924 393.75c-12.466 5.32-23.619 13.178-32.456 23.263-16.25-18.543-39.891-30.497-66.493-30.497s-50.221 11.954-66.493 30.497c-8.838-10.084-19.968-17.942-32.456-23.263 0 0 98.95-172.366 98.95-172.366s98.95 172.366 98.95 172.366zM493.657 915.634c-172.566-8.192-311.385-149.37-316.060-321.402-3.117-115.378 52.936-222.186 149.971-285.651 44.811-29.318 71.569-77.089 71.569-127.8 0 0 0-81.096 0-81.096s66.515 0 66.515 0c0 0-19.256 10.952-19.256 10.952s38.044 66.271 38.044 66.271c0 0-121.121 210.966-121.121 210.966-42.385 6.611-74.997 42.874-74.997 86.884 0 0 44.321 0 44.321 0 0-24.309 19.879-44.121 44.344-44.121 24.442 0 44.321 19.812 44.321 44.121 0 0 44.344 0 44.344 0 0-16.25 8.971-30.319 22.15-37.977 0 0 0 126.241 0 126.241s44.344 0 44.344 0c0 0 0-126.241 0-126.241 13.178 7.658 22.172 21.727 22.172 37.977 0 0 44.321 0 44.321 0 0-24.309 19.879-44.121 44.344-44.121 24.442 0 44.321 19.812 44.321 44.121 0 0 44.344 0 44.344 0 0-44.010-32.634-80.273-75.019-86.884 0 0-121.121-210.966-121.121-210.966s38.044-66.271 38.044-66.271c0 0-19.233-10.952-19.233-10.952s66.493 0 66.493 0c0 0 0 79.048 0 79.048 0 52.558 25.8 100.486 68.964 128.156 95.61 61.284 152.687 165.287 152.687 278.194 0.022 187.882-157.985 339.278-348.806 330.552zM288.323 585.082c0 0-44.344 0-44.344 0 0 137.951 103.981 251.303 241.842 263.68 0 0 3.985-43.943 3.985-43.943-114.866-10.307-201.483-104.76-201.483-219.737z" />
<glyph unicode="&#xe62c;" d="M953.076 128.683c0 0-197.193-193.097-197.193-193.097s-331.264 324.413-331.264 324.413c0 0 87.162 85.382 87.162 85.382s34.865-34.133 34.865-34.133c0 0-52.297-51.249-52.297-51.249s261.534-256.122 261.534-256.122c0 0 162.304 158.964 162.304 158.964 12.532 12.264 19.432 28.574 19.432 45.934s-6.9 33.67-19.432 45.934c0 0-214.626 210.188-214.626 210.188s-87.162-85.382-87.162-85.382c0 0 87.162-85.382 87.162-85.382s34.889 34.158 34.889 34.158c0 0 34.865-34.158 34.865-34.158s-69.754-68.291-69.754-68.291c0 0-261.534 256.122-261.534 256.122s-122.051-119.515-122.051-119.515c0 0-249.49 244.346-249.49 244.346-21.821 21.382-33.865 49.81-33.865 80.067s12.044 58.709 33.865 80.091c0 0 197.193 193.097 197.193 193.097s331.264-324.413 331.264-324.413c0 0-87.162-85.382-87.162-85.382s-34.865 34.158-34.865 34.158c0 0 52.297 51.224 52.297 51.224s-261.534 256.122-261.534 256.122c0 0-162.328-158.964-162.328-158.964-12.507-12.264-19.407-28.574-19.407-45.934s6.9-33.67 19.407-45.934c0 0 214.626-210.188 214.626-210.188s87.186 85.382 87.186 85.382c0 0-87.186 85.382-87.186 85.382s-34.865-34.158-34.865-34.158c0 0-34.865 34.158-34.865 34.158s69.73 68.291 69.73 68.291c0 0 261.534-256.122 261.534-256.122s122.051 119.515 122.051 119.515c0 0 249.515-244.322 249.515-244.322 21.821-21.406 33.865-49.835 33.865-80.091s-12.044-58.685-33.865-80.091z" />
<glyph unicode="&#xe62d;" d="M646.237 270.173c0 0-116.364-139.636-116.364-139.636-4.561-5.469-11.194-8.355-17.897-8.355-4.445 0-8.937 1.28-12.893 3.91 0 0-69.818 46.545-69.818 46.545-10.682 7.145-13.568 21.574-6.447 32.279s21.551 13.591 32.279 6.447c0 0 52.41-34.956 52.41-34.956s102.982 123.601 102.982 123.601c8.239 9.844 22.9 11.194 32.768 2.979 9.891-8.239 11.217-22.924 2.979-32.815zM511.977 610.909c-4.445 0-8.937 1.28-12.893 3.91 0 0-69.818 46.545-69.818 46.545-10.682 7.145-13.568 21.574-6.447 32.279s21.551 13.591 32.279 6.447c0 0 52.41-34.956 52.41-34.956s102.982 123.601 102.982 123.601c8.239 9.868 22.9 11.171 32.768 2.956 9.891-8.215 11.217-22.9 2.979-32.791 0 0-116.364-139.636-116.364-139.636-4.561-5.469-11.194-8.355-17.897-8.355zM646.237 526.173c0 0-116.364-139.636-116.364-139.636-4.561-5.469-11.194-8.355-17.897-8.355-4.445 0-8.937 1.28-12.893 3.91 0 0-69.818 46.545-69.818 46.545-10.682 7.145-13.568 21.574-6.447 32.279s21.551 13.591 32.279 6.447c0 0 52.41-34.956 52.41-34.956s102.982 123.601 102.982 123.601c8.239 9.844 22.9 11.171 32.768 2.979 9.891-8.239 11.217-22.924 2.979-32.815zM1000.727-40.727c0 0-698.182 0-698.182 0s-186.182 0-186.182 0c-12.847 0-23.273 10.403-23.273 23.273 0 0 0 698.182 0 698.182 0 12.87 10.426 23.273 23.273 23.273s23.273-10.403 23.273-23.273c0 0 0-674.909 0-674.909s139.636 0 139.636 0c0 0 0 837.818 0 837.818 0 25.67-20.876 46.545-46.545 46.545 0 0-186.182 0-186.182 0-12.847 0-23.273 10.403-23.273 23.273s10.426 23.273 23.273 23.273c0 0 186.182 0 186.182 0 27.927 0 52.736-12.614 69.818-32.163 17.082 19.549 41.891 32.163 69.818 32.163 0 0 488.727 0 488.727 0 12.847 0 23.273-10.403 23.273-23.273s-10.426-23.273-23.273-23.273c0 0-488.727 0-488.727 0-25.67 0-46.545-20.876-46.545-46.545 0 0 0-837.818 0-837.818s651.636 0 651.636 0c0 0 0 674.909 0 674.909 0 12.87 10.426 23.273 23.273 23.273s23.273-10.403 23.273-23.273c0 0 0-698.182 0-698.182 0-12.87-10.426-23.273-23.273-23.273zM46.545 680.727c0 0 0-698.182 0-698.182 0-12.87-10.426-23.273-23.273-23.273s-23.273 10.403-23.273 23.273c0 0 0 698.182 0 698.182 0 12.87 10.426 23.273 23.273 23.273s23.273-10.403 23.273-23.273z" />
<glyph unicode="&#xe62e;" d="M753.983 4.244c0 0-483.965 0-483.965 0-86.448 0-99.351 47.969-99.351 76.572 0 0 0 415.539 0 415.539 0 54.773 44.578 99.328 99.351 99.328 0 0 483.965 0 483.965 0 54.795 0 99.351-44.555 99.351-99.328 0 0 0-415.539 0-415.539 0-28.604-12.902-76.572-99.351-76.572zM807.822 496.356c0 29.673-24.144 53.84-53.84 53.84 0 0-483.965 0-483.965 0-29.673 0-53.84-24.166-53.84-53.84 0 0 0-415.539 0-415.539 0-11.628 0-31.084 53.84-31.084 0 0 483.965 0 483.965 0 53.84 0 53.84 19.456 53.84 31.084 0 0 0 415.539 0 415.539zM648.533 368.196c0 0-273.067 0-273.067 0-12.561 0-22.756 10.172-22.756 22.756 0 12.561 10.194 22.756 22.756 22.756 0 0 273.067 0 273.067 0 12.561 0 22.756-10.194 22.756-22.756 0-12.584-10.194-22.756-22.756-22.756zM420.978 322.708c0 0 182.044 0 182.044 0 12.561 0 22.756-10.172 22.756-22.756 0-12.561-10.194-22.733-22.756-22.733 0 0-182.044 0-182.044 0-12.561 0-22.756 10.172-22.756 22.733 0 12.584 10.194 22.756 22.756 22.756zM466.489 231.708c0 0 91.022 0 91.022 0 12.561 0 22.756-10.172 22.756-22.733 0-12.584-10.194-22.756-22.756-22.756 0 0-91.022 0-91.022 0-12.561 0-22.756 10.172-22.756 22.756 0 12.561 10.194 22.733 22.756 22.733zM762.675 664.633c-12.584 0-22.756 10.172-22.756 22.756 0 125.247-102.013 227.123-227.396 227.123-125.747 0-228.079-102.855-228.079-229.262 0 0 0-66.81 0-66.81 0-12.584-10.194-22.756-22.756-22.756s-22.756 10.172-22.756 22.756c0 0 0 66.81 0 66.81 0 151.506 122.743 274.751 273.59 274.751 150.482 0 272.907-122.288 272.907-272.612 0-12.584-10.194-22.756-22.756-22.756zM284.444-18.512c0 0 455.111 0 455.111 0 12.561 0 22.756-10.172 22.756-22.756 0-12.561-10.194-22.756-22.756-22.756 0 0-455.111 0-455.111 0-12.561 0-22.756 10.194-22.756 22.756 0 12.584 10.194 22.756 22.756 22.756z" />
<glyph unicode="&#xe62f;" d="M365.045 763.529c60.553 60.666 141.084 94.094 226.736 94.094s166.161-33.428 226.736-94.094c125.019-125.292 125.019-329.136 0-454.428-60.575-60.666-141.084-94.094-226.736-94.094s-166.184 33.428-226.736 94.094c-125.019 125.292-125.019 329.136 0 454.428zM397.426 341.55c51.928-51.996 120.946-80.646 194.355-80.646s142.427 28.649 194.332 80.646c107.156 107.383 107.156 282.146 0 389.507-51.905 51.996-120.923 80.668-194.332 80.668s-142.427-28.672-194.355-80.668c-107.156-107.361-107.156-282.123 0-389.507zM607.983 682.359c8.943 8.966 23.438 8.966 32.381 0s8.943-23.484 0-32.449c0 0-161.951-162.293-161.951-162.293-4.46-4.483-10.331-6.736-16.179-6.736-5.871 0-11.742 2.253-16.202 6.736-8.943 8.966-8.943 23.484 0 32.449 0 0 161.951 162.293 161.951 162.293zM591.781 536.292c8.943 8.966 23.438 8.966 32.381 0s8.943-23.484 0-32.449c0 0-80.964-81.124-80.964-81.124-4.483-4.483-10.354-6.736-16.202-6.736-5.871 0-11.719 2.253-16.202 6.736-8.943 8.966-8.943 23.484 0 32.449 0 0 80.987 81.124 80.987 81.124zM883.302 244.201c-107.861-108.066-265.557-147.593-411.602-103.174-12.106 3.664-18.933 16.498-15.269 28.626 3.686 12.106 16.543 18.933 28.581 15.292 129.843-39.481 270.040-4.369 365.887 91.705 142.882 143.178 142.882 376.149 0 519.327-142.882 143.155-375.376 143.155-518.235 0-69.222-69.359-107.338-161.587-107.338-259.686 0-98.076 38.116-190.305 107.338-259.641 8.943-8.966 8.943-23.506 0-32.449 0 0-293.751-294.366-293.751-294.366-4.46-4.483-10.331-6.713-16.202-6.713-5.848 0-11.719 2.23-16.179 6.713-8.943 8.966-8.943 23.506 0 32.449 0 0 277.982 278.574 277.982 278.574-144.794 161.997-139.56 411.944 15.747 567.569 160.745 161.064 422.275 161.064 583.043 0 160.745-161.087 160.745-423.162 0-584.226z" />
<glyph unicode="&#xe630;" d="M702.635 96c0 0 188.203 0 188.203 0 3.861 0 7.616-1.045 10.923-3.051 0 0 106.069-64 106.069-64 10.048-6.059 13.291-19.157 7.253-29.269-3.968-6.656-10.987-10.347-18.197-10.347-3.712 0-7.488 0.981-10.901 3.051 0 0-101.035 60.949-101.035 60.949s-185.024 0-185.024 0c0 0-381.845 0-381.845 0s-185.045 0-185.045 0c0 0-101.013-60.949-101.013-60.949-3.435-2.069-7.189-3.051-10.901-3.051-7.211 0-14.229 3.691-18.219 10.347-6.016 10.112-2.773 23.211 7.275 29.269 0 0 106.069 64 106.069 64 3.285 2.005 7.061 3.051 10.923 3.051 0 0 188.245 0 188.245 0 11.989 3.264 73.493 23.125 85.355 85.333 0 0-306.709 0-306.709 0-28.523 0-51.755 23.339-51.755 52.032 0 0 0 621.248 0 621.248 0 28.715 23.232 52.053 51.755 52.053 0 0 829.888 0 829.888 0 28.523 0 51.733-23.339 51.733-52.053 0 0 0-621.248 0-621.248 0-28.693-23.211-52.032-51.733-52.032 0 0-306.752 0-306.752 0 12.032-64 75.264-82.731 85.44-85.333zM933.269 854.613c0 5.184-4.181 9.387-9.323 9.387 0 0-829.888 0-829.888 0-5.141 0-9.323-4.203-9.323-9.387 0 0 0-459.947 0-459.947s848.533 0 848.533 0c0 0 0 459.947 0 459.947zM923.947 224c5.141 0 9.323 4.203 9.323 9.365 0 0 0 118.635 0 118.635s-848.533 0-848.533 0c0 0 0-118.635 0-118.635 0-5.163 4.181-9.365 9.323-9.365 0 0 829.888 0 829.888 0zM574.208 181.333c0 0-130.411 0-130.411 0-4.971-36.992-22.421-65.045-43.776-85.333 0 0 217.963 0 217.963 0-21.355 20.288-38.805 48.341-43.776 85.333zM530.219 330.667c23.381 0 42.432-19.136 42.432-42.667s-19.051-42.667-42.432-42.667c-23.403 0-42.432 19.136-42.432 42.667s19.029 42.667 42.432 42.667z" />
<glyph unicode="&#xe631;" d="M908.956 349.050c6.834-10.24 4.074-24.064-6.166-30.876 0 0-200.348-133.565-200.348-133.565-3.807-2.538-8.103-3.74-12.333-3.74-7.19 0-14.269 3.473-18.543 9.906-6.834 10.24-4.074 24.064 6.166 30.876 0 0 200.348 133.565 200.348 133.565 10.24 6.834 24.042 4.051 30.876-6.166zM512.022 180.87c-7.19 0-14.269 3.473-18.543 9.906-6.834 10.24-4.074 24.064 6.166 30.876 0 0 200.348 133.565 200.348 133.565 10.24 6.834 24.042 4.051 30.876-6.166 6.834-10.24 4.074-24.064-6.166-30.876 0 0-200.348-133.565-200.348-133.565-3.807-2.538-8.103-3.74-12.333-3.74zM918.862 91.826c0 0-813.724 0-813.724 0-57.99 0-105.138 47.171-105.138 105.138 0 0 0 406.862 0 406.862 0 12.288 9.951 22.261 22.261 22.261s22.261-9.973 22.261-22.261c0 0 0-406.862 0-406.862 0-33.414 27.203-60.616 60.616-60.616 0 0 813.724 0 813.724 0 33.414 0 60.616 27.203 60.616 60.616 0 0 0 502.072 0 502.072 0 33.414-27.203 60.616-60.616 60.616 0 0-813.724 0-813.724 0-6.834 0-13.357-1.38-19.59-3.517 0 0 355.795-274.187 355.795-274.187 42.251-30.475 100.241-31.232 143.85-1.425 0 0 315.214 208.651 315.214 208.651 10.24 6.79 24.064 3.985 30.854-6.278s3.985-24.064-6.278-30.854c0 0-314.947-208.451-314.947-208.451-28.717-19.634-62.175-29.451-95.655-29.451-34.994 0-70.010 10.73-99.662 32.145 0 0-373.27 287.633-373.27 287.633-4.363 0.601-8.637 2.115-12.132 5.365-4.942 4.608-7.034 10.952-6.767 17.23-0.824 5.721 0.534 11.776 4.341 16.718 3.45 4.497 8.326 7.101 13.49 8.081 18.41 14.447 41.116 22.862 64.757 22.862 0 0 813.724 0 813.724 0 57.99 0 105.138-47.171 105.138-105.138 0 0 0-502.072 0-502.072 0-57.967-47.149-105.138-105.138-105.138z" />
<glyph unicode="&#xe632;" d="M998.814 597.065c0 0-197.608 0-197.608 0-8.485-156.477-98.28-323.096-245.102-358.717 0 0 0-77.019 0-77.019s186.466 0 186.466 0c60.879 0 114.737-38.205 133.973-95.037 0 0 38.961-115.029 38.961-115.029s-46.665-15.311-46.665-15.311c0 0-38.961 115.029-38.961 115.029-12.556 37.035-47.616 61.928-87.308 61.928 0 0-115.176 0-115.176 0-12.069-81.896-83.188-145.237-169.691-145.237-86.528 0-157.623 63.342-169.691 145.237 0 0-115.2 0-115.2 0-39.668 0-74.752-24.893-87.284-61.928 0 0-39.034-115.176-39.034-115.176s-46.665 15.311-46.665 15.311c0 0 39.010 115.176 39.010 115.176 19.261 56.832 73.094 95.037 133.973 95.037 0 0 186.514 0 186.514 0s0 77.019 0 77.019c-154.453 37.474-245.979 219.843-245.979 382.903 0 186.88 154.478 338.895 344.357 338.895 181.565 0 330.386-139.118 343.089-314.685 0 0 198.022 0 198.022 0 13.58 0 24.6-10.825 24.6-24.21 0-13.361-11.020-24.186-24.6-24.186zM457.704 911.75c-154.453 0-281.332-117.419-293.912-266.289 0 0 587.825 0 587.825 0-12.581 148.87-139.483 266.289-293.912 266.289zM482.304 597.065c0 0 0-72.631 0-72.631 0-13.385-11.020-24.21-24.6-24.21s-24.6 10.825-24.6 24.21c0 0 0 72.631 0 72.631s-269.678 0-269.678 0c8.777-140.702 92.77-294.961 224.232-314.978 0 0 20.846-3.17 20.846-3.17s0-166.010 0-166.010c0 0-71.29 0-71.29 0 11.435-55.174 61.099-96.817 120.491-96.817 59.368 0 109.056 41.643 120.491 96.817 0 0-71.314 0-71.314 0s0.024 166.010 0.024 166.010c0 0 20.846 3.17 20.846 3.17 131.462 20.017 215.454 174.275 224.232 314.978 0 0-269.678 0-269.678 0zM457.704 354.987c-81.384 0-147.578 65.146-147.578 145.237 0 13.385 11.020 24.21 24.6 24.21s24.6-10.825 24.6-24.21c0-53.394 44.13-96.817 98.377-96.817s98.377 43.422 98.377 96.817c0 13.385 11.020 24.21 24.6 24.21s24.6-10.825 24.6-24.21c0-80.091-66.194-145.237-147.578-145.237z" />
</font>
</defs>
</svg>
